<?xml version="1.0" standalone="no"?>
<!DOCTYPE svg PUBLIC "-//W3C//DTD SVG 1.1//EN" "http://www.w3.org/Graphics/SVG/1.1/DTD/svg11.dtd">
<svg xmlns="http://www.w3.org/2000/svg">
<metadata>Generated by Fontastic.me</metadata>
<defs>
<font id="untitled-font-7" horiz-adv-x="512">
<font-face font-family="untitled-font-7" units-per-em="512" ascent="480" descent="-32"/>
<missing-glyph horiz-adv-x="512" />

<glyph unicode="&#97;" d="M485 243c0-4 0-70 0-70 0-10-5-20-14-25-4-3-10-5-16-5-4 0-8 1-12 2 0 0-2 1-3 2-16-27-38-50-64-68-36-23-77-36-120-36-43 0-84 13-120 36-26 18-48 41-64 68-1-1-3-2-3-2-4-1-8-2-12-2-6 0-12 2-16 5-9 5-14 15-14 25 0 0 0 66 0 70 0 2 0 3 0 5 0 17 12 32 28 37 3 0 5 1 8 1 4 0 8-1 12-3l77-32c10-4 16-13 18-24 0-1 0-2 0-4 0-9-4-17-11-23 0 0-5-4-8-7 8-12 18-23 30-31 9-7 18-12 29-16 0 43 0 117 0 142-31 17-50 49-50 84 0 53 43 97 96 97 53 0 96-44 96-97 0-35-19-67-50-84 0-25 0-99 0-142 11 4 20 9 29 16 12 8 22 19 30 32-3 2-8 6-8 6-7 6-11 14-11 23 0 2 0 3 0 4 2 11 8 20 18 24l77 32c4 2 8 3 12 3 3 0 5-1 8-1 16-5 28-20 28-37 0-2 0-3 0-5z m-36 13l-77-33 27-22c-22-50-69-87-126-93l0 200c28 8 50 33 50 64 0 37-30 67-67 67-37 0-66-30-66-67 0-31 21-56 49-64l0-200c-57 6-104 42-126 93l27 22-77 33c-4-1-7-6-6-10l0-73 28 12c30-66 94-112 171-112 77 0 141 46 171 112l28-12 0 73c1 4-2 9-6 10z m-226 116c0 19 15 34 33 34 18 0 33-15 33-34 0-18-15-33-33-33-18 0-33 15-33 33z m36 0c0 2-1 4-3 4-2 0-3-2-3-4 0-2 1-3 3-3 2 0 3 1 3 3z"/>
<glyph unicode="&#98;" d="M32 374c14 14 39 14 53 0l146-145c10-9 25-9 35 0l160 158c15 15 42 15 57 0 8-8 12-18 12-28 0-11-4-21-12-29l-202-198c-7-8-17-12-28-12-3 0-6 0-9 1-7 1-14 5-19 10l-193 190c-15 14-15 38 0 53"/>
<glyph unicode="&#99;" d="M372 485c14-14 14-39 0-53l-144-146c-9-10-9-25 0-35l158-160c15-15 15-42 0-57-8-8-18-12-29-12-10 0-20 4-28 12l-198 202c-8 7-12 17-12 28 0 3 0 6 1 9 1 7 5 14 10 19l190 193c14 15 38 15 52 0"/>
<glyph unicode="&#100;" d="M428 52l-340 0c-23 0-43 20-43 43l0 205c0 23 20 43 43 43l48 0 0-31-48 0c-7 0-12-5-12-12l0-205c0-6 5-12 12-12l340 0c6 0 12 6 12 12l0 205c0 7-6 12-12 12l-49 0 0 31 49 0c23 0 43-20 43-43l0-205c0-23-20-43-43-43z m-86 150c-17 0-32 14-32 32 0 13 8 24 19 29l0 109c0 36-31 66-68 66-36 0-74-30-74-66l0-110c10-5 17-16 17-28 0-18-14-32-32-32-18 0-32 14-32 32 0 12 7 22 17 28l0 110c0 53 51 96 104 96 53 0 98-43 98-96l0-111c9-6 15-16 15-27 0-18-14-32-32-32z m-134 110l0 31 100 0 0-31z"/>
<glyph unicode="&#101;" d="M464 399c-8-15-20-32-34-49-20-25-78-96-111-136-2-2-3-4-5-5-1-2-3-4-4-6l-6-8-32-39c-1-1-3-3-5-4-18-63-63-98-128-98-54 0-104 25-106 26-10 5-16 15-16 25 0 3 1 6 1 8 4 13 15 21 28 21 1 0 2 0 3 0 0 0 2 0 5 0 8 0 16 2 21 5 3 1 9 5 9 20 0 35 16 64 45 81 14 7 27 11 36 12 1 2 3 3 4 4l46 41c2 2 4 3 6 4 1 2 3 4 4 5 48 43 106 94 127 113 16 14 33 27 47 36 18 12 32 17 44 17 11 0 20-4 27-11 5-6 8-14 8-23 0-6-2-18-14-39z m-351-240c0-62-67-54-67-54 0 0 159-78 194 59l0-1c0 0 1 1 1 1l-63 61c-4 0-65-6-65-66z m75 76l62-60c8 10 22 27 37 46l-53 54c-19-17-36-31-46-40z m260 206c-7 8-40-11-77-44-21-19-79-70-126-112l51-53c41 50 93 113 112 136 33 40 44 69 40 73z"/>
<glyph unicode="&#102;" d="M484 145c-14-14-39-14-53 0l-147 144c-9 9-25 9-34 0l-160-158c-15-15-42-15-58 0-7 8-11 18-11 29 0 10 4 20 11 28l202 198c8 8 18 12 29 12 3 0 5 0 9-1 7-1 14-5 19-10l193-190c15-14 15-38 0-52"/>
<glyph unicode="&#103;" d="M470 112l-206-85c-2-2-5-2-8-2-3 0-6 0-8 2l-206 85c-8 3-13 10-13 19l0 327c0 12 9 21 21 21 3 0 6 0 8-1l0 0c0 0 0 0 0 0l198-82 198 82c0 0 0 0 0 0l0 0 0 0c2 1 5 1 8 1 12 0 21-9 21-21l0-327c0-9-5-16-13-19z m-235 247l-164 67 0-280 164-68z m206 67l-164-67 0-281 164 68z m-130-98l78 36c3 1 6 2 9 2 12 0 21-10 21-22 0-8-5-16-12-19l-78-36c-3-1-6-1-9-1-12 0-21 9-21 21 0 8 5 16 12 19z m0-78l0 0 78 36c3 1 6 2 9 2 12 0 21-10 21-22 0-8-5-16-12-19l-78-36c-3-1-6-2-9-2-12 0-21 10-21 22 0 8 5 16 12 19z m0-78l78 36c3 1 6 1 9 1 12 0 21-9 21-21 0-9-5-16-12-19l-78-36c-3-1-6-2-9-2-12 0-21 10-21 22 0 8 5 16 12 19z m-197 194c3 0 6-1 9-2l78-36c7-3 12-11 12-19 0-12-9-21-21-21-3 0-6 0-9 1l-78 36c-7 3-12 11-12 19 0 12 9 22 21 22z m0-78c3 0 6-1 9-2l78-36 0 0c7-3 12-11 12-19 0-12-9-22-21-22-3 0-6 1-9 2l-78 36c-7 3-12 11-12 19 0 12 9 22 21 22z m0-79c3 0 6 0 9-1l78-36c7-3 12-11 12-19 0-12-9-22-21-22-3 0-6 1-9 2l-78 36c-7 3-12 11-12 19 0 12 9 21 21 21z"/>
<glyph unicode="&#104;" d="M153 80c-17-17-77-28-89-31-1 0-1 0-2 0-3 0-7 2-9 4-3 3-5 7-4 11 2 12 14 72 31 90 20 19 54 19 73 0 10-10 16-23 16-37 0-14-6-27-16-37z m-18 55c-5 5-11 8-18 8-7 0-14-3-18-8-7-6-15-31-20-56 25 6 50 14 56 20 5 5 8 11 8 18 0 7-3 13-8 18z m320 284l-256-274c0 0 0 0 0 0 0 0 0-1 0-1-1 0-2-1-3-1 0-1 0-1-1-1-2-1-3-1-5-1-2 0-3 0-5 1 0 0-1 0-1 0-1 1-2 1-3 2 0 0 0 0 0 0 0 0 0 0 0 0-1 1-1 2-1 2-1 1-2 2-2 2 0 1 0 2 0 3-1 1-1 1-1 2 0 1 0 2 1 3 0 1 0 1 0 2 0 1 1 2 1 2 1 1 1 2 2 2l0 1c5 5 5 13 0 18-5 5-13 5-18 0l-1 0c0-1-1-1-2-2 0 0-1-1-2-1-1 0-2 0-3 0 0-1-1-1-2-1-1 0-1 0-2 1-1 0-2 0-3 0 0 1-1 1-2 2 0 0-1 0-2 1 0 0 0 0 0 0 0 0 0 0 0 0-1 1-1 2-1 2-1 1-1 2-2 2 0 1 0 2 0 3 0 1-1 1 0 2 0 1 0 2 0 3 0 0 0 1 1 2 0 1 0 1 1 2 0 1 1 2 1 2 0 0 0 0 1 0 0 0 0 0 0 1l274 256c5 4 11 7 18 7l0 0c7 0 14-3 18-8 11-10 11-26 0-36z m-265-213c3-2 6-4 9-7 3-3 5-6 7-9l231 247z"/>
<glyph unicode="&#105;" d="M429 64l-345 0c-32 0-58 26-58 58l0 221c0 31 26 57 58 57 0 0 28 0 53 0 5 32 32 56 64 56l110 0c33 0 60-24 64-56 25 0 54 0 54 0 32 0 57-26 57-57l0-221c0-32-25-58-57-58z m27 279c0 15-12 27-27 27l-82 0c0 0-1 2-1 21 0 19-15 35-35 35l-110 0c-19 0-35-16-35-35 0-19 1-21 1-21l-83 0c-16 0-28-12-28-27l0-221c0-15 12-28 28-28l345 0c15 0 27 13 27 28l0 221z m-199-193c-46 0-83 37-83 83 0 45 37 82 83 82 46 0 83-37 83-82 0-46-37-83-83-83z m0 135c-29 0-53-23-53-52 0-30 24-53 53-53 29 0 53 23 53 53 0 29-24 52-53 52z"/>
<glyph unicode="&#106;" d="M253 18c-131 0-238 107-238 239 0 132 107 238 238 238 132 0 239-106 239-238 0-132-107-239-239-239z m0 422c-101 0-183-82-183-183 0-102 82-184 183-184 102 0 184 82 184 184 0 101-82 183-184 183z m84-248l-19-19c-3-3-9-3-12 0l-53 53-53-53c-3-3-9-3-12 0l-19 19c-3 3-3 9 0 12l53 53-53 53c-3 3-3 9 0 12l19 19c3 3 9 3 12 0l53-53 53 53c3 3 9 3 12 0l19-19c3-3 3-9 0-12l-53-53 53-53c3-3 3-9 0-12z"/>
<glyph unicode="&#107;" d="M476 355l0 0-63-139c-3-7-9-11-17-12l0 0-180-12 11-29 195 0c23 0 42-19 42-42 0-23-19-42-42-42-23 0-41 19-41 42l-194 0c0-23-19-42-42-42-23 0-41 19-41 42 0 23 18 42 41 42l38 0-80 228-48 0c-11 0-21 9-21 21 0 11 10 21 21 21l63 0c9 0 16-6 19-14l0 0 12-35 308 0c11 0 21-9 21-21 0-3-1-6-2-8z m-312-12l38-110 179 12 44 98z"/>
<glyph unicode="&#108;" d="M480 392l-60-86c-3-4-8-7-13-7-5 0-9 2-12 5l-43 43c-3 3-4 7-4 11 0 9 7 17 16 17 4 0 8-2 11-5l30-30 48 71c3 4 8 7 13 7 9 0 16-7 16-16 0-4-1-7-2-10z m-189-75c0-1 0-1 0-2l-137 0 37-105 172 11 5 13c1 0 2 0 3 0 1 9 9 16 19 16 11 0 19-8 20-19 0 0 1 0 1 0l-1-2c0-5-3-10-6-13l-10-22c-3-7-9-11-17-12l-172-11 10-29 188 0c22 0 39-18 39-40 0-22-17-40-39-40-23 0-40 18-40 40l-187 0c0-22-18-40-40-40-22 0-40 18-40 40 0 22 18 40 40 40l36 0-77 220-45 0c-11 0-20 9-20 20 0 11 9 20 20 20l59 0c9 0 17-6 19-14l0 0 12-33 151 0c0 0 0 0 0-1 8-2 14-10 14-19 0-8-6-16-14-18z"/>
<glyph unicode="&#109;" d="M399 129l-1 0-40 0c0 0-1 0-1 0 0 0-1 0-1 0l-4 0 0 1c-5 2-9 7-9 14 0 6 4 11 9 13l0 1 41 0 5 0c32 0 58 30 58 65 1 35-25 64-58 64l0 0c-5 0-10 0-15-2l-13-3-2 15c-8 53-49 92-99 93l-1 0c-42 0-81-29-95-72l-5-13-12 5c-8 4-17 7-27 7l-1 0c-39 0-72-35-73-78 0-43 27-81 67-81l35 0c1 0 1 0 2 0 8 0 14-7 14-14 0-8-6-15-14-15-1 0-1 0-2 0l-33 0 0 0c-55 1-99 50-99 109 1 59 46 107 100 107l2 0c8 0 17-1 25-4 21 48 67 80 116 80l2 0c59-1 109-45 123-106 3 0 6 0 8 0l1 0c48-1 85-43 85-94-1-50-42-92-88-92z m-195 25c0 3 1 6 3 8l42 47 0 0c3 3 7 4 11 4 4 0 8-1 10-4l0 0 42-47c2-2 4-5 4-8 0 0 0 0 0 0 0 0 0-1 0-1 0-8-6-14-14-14-4 0-8 1-10 4l-18 20 0-71c0-8-6-14-14-14-8 0-14 6-14 14l0 71-18-20c-2-3-6-4-10-4-8 0-14 5-14 12 0 1 0 1 0 2 0 0 0 0 0 1 0 0 0 0 0 0z m91 178c-8 1-13 7-12 15 1 7 8 13 15 11 14-1 40-15 43-51 0-7-5-14-13-14 0 0-1 0-1 0-7 0-13 5-13 12-2 24-19 27-19 27z"/>
<glyph unicode="&#110;" d="M401 134l0 0-41 0c-1 0-1 0-2 0 0 0 0 0-1 0l-3 0 0 1c-6 2-10 7-10 13 0 7 4 12 10 14l0 1 41 0 5 0c33 0 58 31 59 66 0 35-26 65-59 65l0 0c-5 0-10 0-15-2l-14-4-2 15c-7 55-49 95-99 96l-2 0c-43 0-82-30-96-74l-5-13-12 6c-9 4-18 6-28 6l-1 0c-40 0-73-35-74-79 0-44 28-82 68-82l36 0c0 0 1 0 2 0 8 0 14-7 14-15 0-8-6-14-14-14-1 0-2 0-2 0l-34 0 0 0c-56 1-101 50-100 111 1 59 46 108 101 108l2 0c9 0 17-2 26-4 21 48 67 80 117 80l3 0c59-1 110-45 124-107 3 0 6 0 8 0l2 0c47 0 86-43 85-95-1-51-42-93-89-93z m-185 25c4 0 8-2 11-5l17-20 0 72c0 8 7 14 15 14 8 0 14-6 14-14l0-72 18 20c2 3 6 5 10 5 8 0 14-6 15-13 0-1 0-1 0-2 0 0 0 0 0 0 0 0 0 0 0-1 0 0 0 0 0 0-1-3-2-6-4-8l-43-48 0 0c-2-2-6-4-10-4-5 0-8 2-11 4l0 0-43 48c-2 2-3 5-3 8 0 0 0 1 0 1 0 8 6 15 14 15z m79 180c-7 1-13 8-11 16 1 7 7 12 15 11 14-2 40-15 43-52 0-7-5-14-13-14 0 0-1 0-1 0-7 0-13 5-14 12-1 24-18 27-19 27z"/>
<glyph unicode="&#111;" d="M393 109l0 0-39 0c0 0-1 0-1 0 0 0-1 0-1 0l-3 0 0 1c-6 1-9 6-9 12 0 6 3 12 9 13l0 1 38 0 5 0c31 0 56 29 56 63 1 33-24 61-55 62l-1 0c-5 0-9-1-14-2l-13-4-2 14c-7 52-46 90-94 91l-2 0c-40 0-77-28-91-70l-4-13-12 6c-8 4-17 6-26 6l-1 0c-38 0-69-34-70-75 0-41 26-77 64-78l34 0c1 0 1 0 2 0 7 0 13-6 13-14 0-7-6-13-13-13-1 0-1 0-2 0l-32 0 0 0c-53 1-95 47-94 105 0 56 43 102 95 102l2 0c8 0 16-1 24-4 21 46 64 77 112 77l2 0c57-1 104-43 118-102 2 0 5 0 8 0l1 0c45 0 81-41 81-90-1-48-40-88-85-88z m-179 47c0 8 6 14 13 14 4 0 7-2 9-4l27-26 26 26c2 2 6 4 9 4 8 0 14-6 14-14 0-3-2-7-4-9l-26-26 26-27c2-2 4-5 4-9 0-7-6-13-14-13-3 0-7 1-9 3l-26 27-27-27c-2-2-5-3-9-3-7 0-13 6-13 13 0 4 1 7 3 9l27 27-27 26c-2 2-3 6-3 9z m79 147c-7 1-12 8-11 15 1 7 8 12 15 11 13-2 38-14 40-49 1-8-5-14-12-14 0 0 0 0-1 0-6 0-12 5-13 12-1 23-17 25-18 25z"/>
<glyph unicode="&#112;" d="M400 126l-1 0-41 0c0 0-1 0-1 0 0 0-1 0-1 0l-4 0 0 1c-5 2-9 7-9 13 0 7 4 12 9 14l0 1 41 0 6 0c33 0 59 31 59 66 1 36-26 66-59 66l-1 0c-4 0-9-1-14-2l-14-4-2 15c-7 55-50 95-100 96l-2 0c-43 0-82-30-97-74l-4-13-13 6c-8 4-18 6-27 6l-2 0c-40 0-73-36-74-79 0-44 28-82 68-83l36 0c1 0 2 0 2 0 8 0 15-7 15-15 0-8-7-14-15-14-1 0-1 0-2 0l-34 0 0 0c-56 1-101 50-100 111 1 60 46 109 102 109l1 0c9 0 18-2 26-4 22 49 68 81 119 81l2 0c60-1 111-46 125-108 3 0 5 0 8 0l1 0c48 0 87-43 86-96-1-51-42-93-89-93z m-184 27c4 0 7-1 10-4l26-26 43 62c2 4 7 7 12 7 8 0 14-7 14-15 0-3-1-6-3-8l-52-76c-3-4-7-7-12-7-4 0-8 2-10 4l-38 39c-3 2-5 6-5 10 0 8 7 14 15 14z m97 152c-2 25-19 27-20 27-7 1-12 8-11 16 1 7 8 13 15 12 14-2 41-16 43-53 1-8-5-14-12-15-1 0-1 0-1 0-8 0-14 6-14 13z"/>
<glyph unicode="&#113;" d="M396 117l0-1-263 0-1 0c-52 1-95 48-94 105 1 57 44 102 96 102l1 0c9 0 17-1 25-3 20 46 63 76 111 76l2 0c57-1 104-43 118-102 2 1 5 1 8 1l1 0c45-1 81-42 80-91 0-48-39-87-84-87z m0 151l-1 0c-4 0-9-1-14-2l-13-3-2 14c-6 51-46 89-94 90l-1 0c-41 0-77-28-91-69l-5-13-11 5c-9 4-17 6-26 6l-2 0c-37 0-69-33-69-74-1-42 29-75 68-76l259 0 2 1c31 0 55 26 55 59 1 34-24 62-55 62z m-68 5c0 0 0 0 0 0-7 0-13 5-13 12-2 23-18 25-19 26-7 0-12 7-11 14 1 7 8 12 15 11 13-2 38-14 41-49 0-7-5-13-13-14z"/>
<glyph unicode="&#114;" d="M337 254l132 132c23 22 23 58 0 81-22 22-59 22-81 0l-132-132-132 132c-22 22-59 22-81 0-23-23-23-59 0-81l132-132-128-128c-22-22-22-58 0-81 23-22 59-22 82 0l127 128 127-128c23-22 59-22 82 0 22 23 22 59 0 81z"/>
<glyph unicode="&#115;" d="M266 407c0 4-3 7-7 7-4 0-7-3-7-7 0-7 14-7 14 0z m-7-339c10 0 19 6 24 15l-47 0c4-9 13-15 23-15z m175 65c-4 0-13 6-22 25-11 22-17 52-17 83l0 49c0 54-32 102-80 124-3 28-27 50-56 50-29 0-53-22-56-50-48-22-80-70-80-124l0-49c0-31-6-61-17-83-9-19-18-25-22-25-21 0-38-17-38-39 0-21 17-38 38-38 0 0 84 0 110 0 14-23 38-38 65-38 27 0 52 15 65 38 26 0 110 0 110 0 21 0 38 17 38 38 0 22-17 39-38 39z m0-50l-128 0c-5-22-24-38-47-38-23 0-42 16-47 38l-128 0c-6 0-11 5-11 11 0 7 5 12 11 12 36 0 66 62 66 135l0 49c0 51 35 93 82 106-2 3-3 7-3 11 0 17 14 30 30 30 17 0 30-13 30-30 0-4-1-8-2-11 47-13 81-55 81-106l0-49c0-73 31-135 66-135 7 0 12-5 12-12 0-6-5-11-12-11z"/>
<glyph unicode="&#116;" d="M253 17c-130 0-236 106-236 236 0 131 106 237 236 237 131 0 237-106 237-237 0-130-106-236-237-236z m0 419c-100 0-182-82-182-183 0-100 82-182 182-182 101 0 183 82 183 182 0 101-82 183-183 183z m-27-275c-4-3-9-3-13 0l-2 3 0 0-3 3-13 13c0 0 0 0 0 0l-58 58c-3 4-3 9 0 13l18 18c4 3 9 3 12 0l53-53 109 110c3 3 9 3 12 0l19-18c3-4 3-9 0-13z"/>
<glyph unicode="&#117;" d="M473 67c-7-10-19-16-32-16-6 0-13 1-20 4l-53 21c-35-24-78-37-121-37-119 0-215 97-215 217 0 120 96 217 215 217 119 0 216-97 216-217 0-25-4-50-13-73l27-73c8-22 1-36-4-43z m-24 33l-30 83c9 22 15 47 15 73 0 104-84 188-187 188-103 0-186-84-186-188 0-104 83-188 186-188 44 0 85 16 117 42l68-27c3-2 7-2 9-2 9 0 13 7 8 19z m-109 93l-182 0c-13 0-23 10-23 23 0 14 10 24 23 24l182 0c13 0 24-10 24-24 0-13-11-23-24-23z m0 79l-182 0c-13 0-23 10-23 24 0 13 10 23 23 23l182 0c13 0 24-10 24-23 0-14-11-24-24-24z"/>
<glyph unicode="&#118;" d="M237 456c106 0 191-86 191-192 0-27-5-52-15-75l31-86c4-12 1-19-8-19-3 0-6 1-10 2l-69 27c-33-26-75-42-120-42-105 0-191 86-191 193 0 106 86 192 191 192m86-217c13 0 24 11 24 25 0 13-11 24-24 24-14 0-25-11-25-24 0-14 11-25 25-25m-91 0c14 0 25 11 25 25 0 13-11 24-25 24-13 0-24-11-24-24 0-14 11-25 24-25m-90 0c14 0 25 11 25 25 0 13-11 24-25 24-13 0-24-11-24-24 0-14 11-25 24-25m95 247c-122 0-221-100-221-222 0-123 99-223 221-223 44 0 88 13 124 38l54-21c7-3 14-5 21-5 13 0 25 7 33 17 5 7 11 22 3 44l-27 74c9 24 13 50 13 76 0 122-99 222-221 222z"/>
<glyph unicode="&#119;" d="M490 353c-3-3-8-5-12-5l-47 0 0-47c0-4-1-8-5-11-6-7-17-7-23 0-4 3-5 7-5 11l0 47-47 0c-4 0-9 2-12 5-7 7-7 17 0 24 3 3 8 5 12 5l47 0 0 47c0 4 1 8 5 12 6 6 17 6 23 0 4-4 5-8 5-12l0-47 47 0c4 0 9-2 12-5 7-7 7-17 0-24z m-198-19c0 0 0-1 0-1l-144 0 39-111 180 12 6 13c1 0 2 0 3 0 1 9 10 17 20 17 11 0 21-9 21-20 0 0 1 0 1 0l-1-2c0-5-3-10-6-14l-11-23c-3-7-9-12-17-12l0-1-182-12 11-30 197 0c23 0 42-18 42-42 0-23-19-42-42-42-23 0-42 19-42 42l-196 0c0-23-19-42-42-42-23 0-42 19-42 42 0 24 19 42 42 42l38 0-81 232-48 0c-12 0-21 9-21 21 0 11 9 21 21 21l63 0c9 0 17-6 20-14l0 0 12-35 159 0c0-1 0-1-1-1 9-3 15-11 15-20 0-9-6-17-14-20z"/>
<glyph unicode="&#120;" d="M460 353l-110 0c-10 0-18 9-18 19 0 10 8 18 18 18l110 0c10 0 18-8 18-18 0-10-8-19-18-19z m-174-12c0 0 0-1 0-1l-139 0 38-106 173 11 5 13c1 0 2 0 3 0 1 9 9 16 19 16 11 0 20-8 20-19 1 0 1 0 1 0l-1-2c0-5-2-10-6-13l-10-22c-3-7-9-12-17-12l-174-12 10-29 190 0c22 0 40-18 40-40 0-22-18-40-40-40-22 0-40 18-40 40l-188 0c0-22-18-40-41-40-22 0-40 18-40 40 0 22 18 40 40 40l37 0-78 222-46 0c-11 0-20 9-20 20 0 11 9 20 20 20l61 0c8 0 16-6 19-13l0 0 11-34 152 0c0 0 0-1 0-1 8-2 14-10 14-19 0-9-6-16-13-19z"/>
<glyph unicode="&#121;" d="M420 347l32-32c3-3 5-7 5-12 0-9-7-16-16-16-5 0-9 2-12 5l-32 32-32-32c-3-3-7-5-11-5-9 0-17 7-17 16 0 5 2 9 5 12l32 32-32 32c-3 3-5 7-5 11 0 9 8 17 17 17 4 0 8-2 11-5l32-32 32 32c3 3 7 5 12 5 9 0 16-8 16-17 0-4-2-8-5-11z m-133-18c0-1 0-1 0-2l-140 0 37-107 175 11 6 13c1 0 2 0 3 0 1 9 9 16 19 16 11 0 20-8 21-19 0 0 0 0 1 0l-1-2c-1-5-3-10-6-13l-10-23c-3-6-10-11-18-12l-176-11 11-29 191 0c23 0 41-19 41-41 0-23-18-41-41-41-22 0-41 18-41 41l-190 0c0-23-18-41-40-41-23 0-41 18-41 41 0 22 18 41 41 41l36 0-78 224-47 0c-11 0-20 9-20 20 0 11 9 20 20 20l61 0c9 0 17-5 20-13l0 0 11-34 154 0c0-1 0-1 0-1 8-3 14-10 14-19 0-9-5-17-13-19z"/>
<glyph unicode="&#122;" d="M257 22c-129 0-233 104-233 233 0 129 104 233 233 233 128 0 232-104 232-233 0-129-104-233-232-233z m0 435c-112 0-202-91-202-202 0-112 90-202 202-202 111 0 201 90 201 202 0 111-90 202-201 202z m117-127l-65-109c-5-7-11-14-19-19l-109-65c-12-7-27-5-37 5-10 10-12 25-5 37l65 109c5 8 12 15 20 20l108 65c12 7 28 5 38-5 0 0 0 0 0 0 10-10 12-25 4-38z m-38 5c-1 1-4 2-6 0l-85-51c-3-1-6-3-8-5l-1-1 0 0c0 0-1 0-2-1-12-12-12-32 0-44 13-13 33-13 45 0 0 0 1 1 1 1l0 0 1 1c2 3 4 5 5 9l51 84c1 2 1 5-1 7z"/>
<glyph unicode="&#65;" d="M476 351l-68-68c-4-4-9-6-15-6-5 0-10 2-14 6-8 8-8 21 0 29l33 33-33 0c-24 0-80-54-125-98-65-63-126-121-174-121l-30 0c-11 0-20 9-20 20 0 11 9 21 20 21l30 0c32 0 95 61 145 109 61 60 114 110 154 110l33 0-33 34c-8 8-8 21 0 29 8 8 21 8 29 0l68-69c4-3 6-9 6-14 0-6-2-11-6-15z m0-219l-68-69c-4-4-9-6-15-6-5 0-10 2-14 6-8 8-8 21 0 29l33 34-33 0c-31 0-62 23-108 66-8 8-9 21-1 29 8 8 21 9 29 1 29-27 61-55 80-55l33 0-33 33c-8 8-8 21 0 29 8 8 21 8 29 0l68-68c4-4 6-9 6-15 0-5-2-11-6-14z m-279 160c-4-5-10-7-16-7-4 0-9 2-13 5-28 26-64 55-88 55l-30 0c-11 0-20 10-20 21 0 11 9 20 20 20l30 0c36 0 72-26 115-65 9-8 9-21 2-29z"/>
<glyph unicode="&#66;" d="M476 241l0 0-85-85 0 0c-4-4-9-6-15-6-11 0-21 9-21 21 0 6 2 11 6 15l0 0 70 70-70 70 0 0c-4 4-6 9-6 15 0 12 9 21 21 21 6 0 11-2 15-6l0 0 84-84c5-4 7-10 7-16 0-6-2-11-6-15z m-257-141c-3-8-11-14-20-14-11 0-21 10-21 21 0 3 1 6 1 8l113 297c3 8 11 14 20 14 12 0 22-10 22-21 0-3-1-6-2-8z m-68 226l-70-70 70-70 0 0c4-4 6-9 6-15 0-12-10-21-21-21-6 0-11 2-15 6l0 0-85 85 0 0c-4 4-6 9-6 15 0 6 2 12 7 16l84 84 0 0c4 4 9 6 15 6 12 0 21-9 21-21 0-6-2-11-6-15z"/>
<glyph unicode="&#65;" d="M435 50l-358 0c-21 0-37 16-37 37l0 164c0 11 9 20 19 20 11 0 20-9 20-20l0-162 354 0 0 162c0 11 9 20 20 20 10 0 19-9 19-20l0-164c0-21-16-37-37-37z m-103 201c0-1 0-1 0-1 0-4-2-8-5-11l-58-64 0 0c-3-4-8-7-14-7-6 0-11 3-14 7l0 0-58 64c-3 3-5 7-5 11 0 1 0 2 0 2 0 11 8 20 19 20 6 0 11-3 14-7l25-27 0 180c0 11 8 19 19 19 11 0 19-8 19-19l0-180 25 27c3 4 8 7 14 7 10 0 18-8 19-18 0 0 0-1 0-2 0 0 0 0 0 0 0 0 0-1 0-1z"/>
<glyph unicode="&#67;" d="M256 28c-89 0-162 79-162 177 0 90 130 253 145 271 8 10 26 10 34 0 15-18 145-181 145-271 0-98-73-177-162-177z m0 423c-49-62-133-183-133-246 0-81 60-148 133-148 73 0 133 67 133 148 0 63-84 184-133 246z m-7-355c-21-1-64 11-78 65-3 11 4 22 15 25 0 0 1 0 1 0 11 2 21-4 24-15 9-35 34-34 35-34 12 1 21-8 22-19 1-12-8-21-19-22z"/>
<glyph unicode="&#68;" d="M434 197c-4 0-9 1-13 3-18 7-37 11-58 11-33 0-66-9-102-18-36-9-74-19-112-19-21 0-40 3-59 9l0-130c0-12-9-21-20-21-11 0-20 9-20 21l0 374c0 17 12 29 28 29 4 0 9-1 13-2 18-8 37-11 58-11 33 0 66 9 102 18 36 9 74 19 112 19 27 0 50-5 73-14 15-6 26-23 26-38l0-202c0-16-12-29-28-29z m-12 230c0 0-1 1-2 2-17 7-36 10-57 10-33 0-66-9-102-18-36-9-74-19-112-19-21 0-40 3-59 9l0-185c0 0 0 0 0 0 1 0 1-1 2-1 17-7 36-10 57-10 33 0 66 8 102 17 36 10 74 20 112 20 21 0 40-3 59-9z m-29-38c0-8-6-15-15-15 0 0-1 0-2 0-5 1-22 5-38 5-16 0-31-3-36-5-1 0-2 0-2 0-8 0-15 7-15 15 0 9 6 16 14 16 0 0-3 0 0 1 7 1 24 5 38 5 13 0 31-5 39-6 4 0 2-1 2-1 9 0 15-6 15-15z"/>
<glyph unicode="&#69;" d="M319 17c-75 0-135 61-135 135 0 0 0 15 0 24-18-42-60-72-108-72l-5 0c-29 0-52 23-52 52 0 29 23 53 52 53l5 0c7 0 12 5 12 12l0 135c0 77 63 139 140 139 36 0 71-14 97-40 20-19 34-45 39-72 22-8 42-22 57-40 21-24 33-55 33-87l0-104c0-74-61-135-135-135z m-126 288c12 30 34 55 63 70-6 9-17 15-28 15-19 0-35-15-35-34 0 0 0-27 0-51z m230-49c0 51-38 94-87 103-2 58-50 105-108 105-60 0-109-48-109-108l0-135c0-24-19-43-43-43l-5 0c-12 0-21-10-21-22 0-12 9-22 21-22l5 0c48 0 86 39 86 87l0 135c0 36 30 65 66 65 35 0 64-29 65-64-45-12-78-53-78-101l0-104c0-57 46-104 104-104 57 0 104 47 104 104z m-104-26c-10 0-18 8-18 17l0 52c0 10 8 18 18 18 9 0 17-8 17-18l0-52c0-9-8-17-17-17z"/>
<glyph unicode="&#70;" d="M258 479c-96 0-174-78-174-173 0-56 27-109 73-142l2-1c11-6 12-26 12-30l0-2 0-57c0-11 6-21 15-26l59-29c4-3 8-4 13-4 5 0 9 1 13 4l59 29c10 5 16 15 16 26l0 57c0 28 18 38 18 38l6 4c39 33 62 81 62 133 0 95-78 173-174 173z m-58-348l0 1 117 0 0-1 0-28-117 0z m58-87l-58 30 117 0z m94 151c0 0-20-9-30-34l-127 0c-4 10-10 20-21 27-37 26-61 69-61 118 0 80 65 144 145 144 80 0 145-64 145-144 0-45-20-84-51-111z m-79 226c-8 0-15-6-15-14 0-8 7-15 15-15 32 0 72-29 72-73 0-8 6-15 14-15 8 0 15 7 15 15 0 66-52 102-101 102z"/>
<glyph unicode="&#71;" d="M459 279c-2-1-3-2-4-3-37-38-78-3-115 17-28 15-57 18-84-1-27 19-56 16-84 1-37-20-78-55-115-17-1 1-2 2-4 3-6 4-16 1-16-11 10-122 150-148 219-74 69-74 209-48 219 74 0 12-10 15-16 11z m-195-60c-1 4-4 7-9 7 0 0-1 0-1 0 0 0 0 0-1 0-4 0-7-3-9-7-45-53-144-51-168 22 20-10 41-8 64 3 35 16 71 51 107 21 3-2 5-3 7-2 2-1 5 0 7 2 36 30 72-5 107-21 23-11 44-13 64-3-24-73-123-75-168-22z"/>
<glyph unicode="&#72;" d="M106 22c-13 0-25 5-35 14l-12 13c-54 54-11 181 99 291 75 75 163 122 228 122 26 0 48-8 63-24l13-12c9-9 14-21 14-34 0-13-5-26-14-35l-50-49c-18-19-50-19-69 0l-12 12c-4 4-9 6-16 6-12 0-40-7-88-55-57-57-63-91-49-104l12-12c19-19 19-50 0-69l-50-50c-9-9-21-14-34-14z m280 412c-57 0-139-45-208-114-96-95-141-210-99-252l12-12c8-8 22-8 30 0l49 49c8 9 8 22 0 30l-12 12c-14 15-38 57 49 143 42 42 79 64 108 64 14 0 26-5 36-14l12-13c8-8 22-8 30 0l49 50c4 4 6 9 6 15 0 5-2 11-6 14l-12 13c-10 10-25 15-44 15z"/>
<glyph unicode="&#73;" d="M429 292l-134 0 0 137c0 22-18 40-40 40-22 0-40-18-40-40l0-137-137 0c-22 0-40-18-40-40 0-23 18-41 40-41l137 0 0-133c0-22 18-40 40-40 22 0 40 18 40 40l0 133 134 0c22 0 40 18 40 41 0 22-18 40-40 40z"/>
<glyph unicode="&#74;" d="M485 214l-14 0 0 204c0 40-33 73-73 73l-291 0c-40 0-73-33-73-73l0-320c0-40 33-73 73-73l291 0c40 0 73 33 73 73l0 29 14 0c8 0 15 6 15 14l0 59c0 8-7 14-15 14z m-378 247l291 0c24 0 44-19 44-43l0-117c-9 6-19 11-30 13 0 1 1 1 1 2l0 102c0 8-7 14-15 14l-276 0c-24 0-45-11-58-29l0 15c0 24 19 43 43 43z m-29-101c0 24 20 43 44 43l262 0 0-29-262 0c-19 0-35-12-41-29-2 5-3 9-3 15z m44-44c-8 0-15 6-15 14 0 9 7 15 15 15l262 0 0-29z m320-218c0-24-20-44-44-44l-291 0c-24 0-43 20-43 44l0 204c12-9 27-15 43-15l291 0c24 0 44-20 44-44l0-29-73 0c-24 0-44-19-44-44 0-24 20-43 44-43l73 0 0-29z m29 58l-102 0c-8 0-14 6-14 14 0 8 6 15 14 15l102 0 0-29z"/>
<glyph unicode="&#75;" d="M465 311c0 0 0 0 0 0 0 3-1 5-3 7l-104 142c-1 2-1 2-2 3-1 0-1 0-1 1-1 0-3 1-4 2 0 0 0 0 0 0 0 0 0 0-1 0 0 0-1 0-2 0l-184 0c-1 0-2 0-3 0 0 0 0 0 0 0 0 0 0 0 0 0-2-1-3-2-4-2-1-1-1-1-1-1-1-1-2-1-3-3l-105-144c0 0 0 0 0-1 0 0-1 0-1-1 0 0 0 0 0 0 0-1 0-2-1-2 0-1 0-1 0-2 0-1 0-1 0-2 0 0 0-1 0-1 0-1 0-2 1-2 0-1 0-1 0-2 0 0 0 0 0-1 1 0 1 0 1-1 0 0 0 0 1-1l197-249c0 0 0 0 0-1 1 0 1-1 2-1 0 0 1-1 1-1 0 0 0 0 0 0 1 0 1-1 2-1 0 0 1 0 1 0 1 0 1-1 1-1 1 0 2 0 3 0 0 0 0 0 0 0l0 0c0 0 0 0 0 0 1 0 2 0 3 0 0 0 0 1 0 1 1 0 1 0 2 0 0 0 1 1 1 1 0 0 1 0 1 0 0 0 0 1 1 1 0 0 1 1 1 1 1 1 1 1 1 1l196 248c2 2 4 6 4 9 0 1 0 2-1 3z m-134 129l-27-118-96 0-28 118z m-173-18l23-100-96 0z m-72-127l101 0 43-181z m170-178l-42 178 83 0z m26-3l42 181 101 0z m48 208l24 100 73-100z"/>
<glyph unicode="&#75;" d="M476 351l-68-68c-4-4-9-6-15-6-5 0-10 2-14 6-8 8-8 21 0 29l33 33-33 0c-24 0-80-54-125-98-65-63-126-121-174-121l-30 0c-11 0-20 9-20 20 0 11 9 21 20 21l30 0c32 0 95 61 145 109 61 60 114 110 154 110l33 0-33 34c-8 8-8 21 0 29 8 8 21 8 29 0l68-69c4-3 6-9 6-14 0-6-2-11-6-15z m0-219l-68-69c-4-4-9-6-15-6-5 0-10 2-14 6-8 8-8 21 0 29l33 34-33 0c-31 0-62 23-108 66-8 8-9 21-1 29 8 8 21 9 29 1 29-27 61-55 80-55l33 0-33 33c-8 8-8 21 0 29 8 8 21 8 29 0l68-68c4-4 6-9 6-15 0-5-2-11-6-14z m-279 160c-4-5-10-7-16-7-4 0-9 2-13 5-28 26-64 55-88 55l-30 0c-11 0-20 10-20 21 0 11 9 20 20 20l30 0c36 0 72-26 115-65 9-8 9-21 2-29z"/>
<glyph unicode="&#76;" d="M465 311c0 0 0 0 0 0 0 3-1 5-3 7l-104 142c-1 2-1 2-2 3-1 0-1 0-1 1-1 0-3 1-4 2 0 0 0 0 0 0 0 0 0 0-1 0 0 0-1 0-2 0l-184 0c-1 0-2 0-3 0 0 0 0 0 0 0 0 0 0 0 0 0-2-1-3-2-4-2-1-1-1-1-1-1-1-1-2-1-3-3l-105-144c0 0 0 0 0-1 0 0-1 0-1-1 0 0 0 0 0 0 0-1 0-2-1-2 0-1 0-1 0-2 0-1 0-1 0-2 0 0 0-1 0-1 0-1 0-2 1-2 0-1 0-1 0-2 0 0 0 0 0-1 1 0 1 0 1-1 0 0 0 0 1-1l197-249c0 0 0 0 0-1 1 0 1-1 2-1 0 0 1-1 1-1 0 0 0 0 0 0 1 0 1-1 2-1 0 0 1 0 1 0 1 0 1-1 1-1 1 0 2 0 3 0 0 0 0 0 0 0l0 0c0 0 0 0 0 0 1 0 2 0 3 0 0 0 0 1 0 1 1 0 1 0 2 0 0 0 1 1 1 1 0 0 1 0 1 0 0 0 0 1 1 1 0 0 1 1 1 1 1 1 1 1 1 1l196 248c2 2 4 6 4 9 0 1 0 2-1 3z m-134 129l-27-118-96 0-28 118z m-173-18l23-100-96 0z m-72-127l101 0 43-181z m170-178l-42 178 83 0z m26-3l42 181 101 0z m48 208l24 100 73-100z"/>
<glyph unicode="&#77;" d="M411 291c-3 5-7 8-13 8l-99 0 0 170c0 7-4 12-10 14-6 2-13 0-16-5l-171-242c-3-5-3-10-1-15 3-5 7-8 13-8l99 0 0-170c0-7 4-12 10-14 2 0 3-1 5-1 4 0 8 3 11 6l171 242c3 5 3 10 1 15z m-169-204l0 141c0 7-7 14-14 14l-87 0 129 183 0-141c0-7 7-14 14-14l87 0z"/>
<glyph unicode="&#78;" d="M475 213c0-10-4-19-12-24 8-6 12-14 12-24 0-11-6-21-16-26l-190-95c-4-2-8-3-13-3-5 0-9 1-13 3l-190 95c-10 5-16 15-16 26 0 10 4 18 12 24-8 5-12 14-12 24 0 9 4 18 12 23-8 6-12 15-12 24 0 10 4 18 12 24-8 5-12 14-12 24 0 11 6 21 16 26l190 95c4 2 9 3 13 3 5 0 9-1 13-3l190-95c10-5 16-15 16-26 0-10-4-19-12-24 8-6 12-14 12-24 0-9-4-18-12-24 8-5 12-14 12-23z m-219 190l-190-95 190-95 190 95z m166-131l-166-83-166 83-24-12 190-95 190 95z m0-47l-166-83-166 83-24-12 190-95 190 95z m0-48l-166-83-166 83-24-12 190-95 190 95z"/>
<glyph unicode="&#79;" d="M427 118l-120 0 0-17-104 0 0 17-120 0c-28 0-52 23-52 51l0 241c0 29 24 52 52 52l344 0c28 0 51-23 51-52l0-241c0-28-23-51-51-51z m17 292c0 10-8 17-17 17l-344 0c-9 0-17-7-17-17l0-241c0-9 8-17 17-17l344 0c9 0 17 8 17 17l0 241z m-26-360l-317 0c-9 0-17 8-17 18 0 9 8 17 17 17l317 0c10 0 18-8 18-17 0-10-8-18-18-18z"/>
<glyph unicode="&#80;" d="M454 480c-6 5-10 8-18 8-2 0-4 0-6 0l-230-41c-16-3-27-17-27-34l0-30-1 0 0-213c-13 10-31 17-50 17-44 0-81-37-81-81 0-45 37-81 81-81 42 0 77 33 80 75l1 0 0 222 232 42 0-164c-14 11-27 17-45 17-45 0-81-36-81-81 0-44 36-81 81-81 42 0 73 33 76 75l0 0 0 323c0 11-4 20-12 27z m-332-423c-27 0-49 22-49 49 0 27 22 49 49 49 27 0 49-22 49-49 0-27-22-49-49-49z m268 30c-28 0-50 22-50 49 0 27 22 49 50 49 27 0 49-22 49-49 0-27-22-49-49-49z m45 309l-232-42 0 59c0 1 1 3 3 3l225 40c0 0 1 0 1 0 0 0 1 0 2 0 0-1 1-2 1-3l0-28z"/>
<glyph unicode="&#81;" d="M480 453l-196-393c-5-10-15-16-25-16-2 0-4 1-6 1-13 3-21 14-21 27 0 0 0 128 0 169-40 0-154 0-159 0-1 0-2 0-3 0l-7 0c-9 0-17 4-22 11l-1 0c-3 5-5 11-5 17 0 2 0 4 1 6 2 8 7 15 14 18l393 197c4 2 8 3 13 3 7 0 14-3 19-8 5-6 8-13 8-20 0-4-1-8-3-12z m-418-184l1 0 7 0 0 0 189 0 0-197 197 393z"/>
<glyph unicode="&#82;" d="M442 340l-120 136c-4 4-8 6-13 6l-174 0c-28 0-50-23-50-50l0-352c0-27 22-50 50-50l260 0c28 0 51 23 51 50l0 247c0 5-1 9-4 13z m-117 87l67-76-47 0c-11 0-20 9-20 20z m70-367l-260 0c-11 0-20 9-20 20l0 352c0 11 9 20 20 20l159 0 0-81c0-28 23-51 51-51l70 0 0-240c0-11-9-20-20-20z"/>
<glyph unicode="&#83;" d="M432 325l0-240c0-28-22-50-49-50l-254 0c-27 0-49 22-49 50l0 342c0 28 22 50 49 50l170 0c5 0 9-2 12-6l118-133c3-4 3-8 3-13z m-118 98l0-55c0-11 9-20 20-20l46 0z m89-104l-69 0c-27 0-49 22-49 49l0 79-156 0c-11 0-20-9-20-20l0-342c0-11 9-20 20-20l254 0c11 0 20 9 20 20z m-162-178c-6-6-16-6-22 0l-44 44c-6 6-6 16 0 22 6 6 16 6 22 0l44-44c6-6 6-16 0-22z m96 95l-95-95c-6-6-16-6-22 0-6 6-6 16 0 22l95 95c6 6 16 6 22 0 6-6 6-16 0-22z"/>
<glyph unicode="&#84;" d="M469 361c-21 47-66 78-115 78-49 0-81-22-99-45-19 23-50 45-100 45-48 0-94-31-115-78-22-50-12-104 26-147 93-103 175-177 175-177 4-4 9-5 14-5 4 0 9 1 13 5 1 0 83 74 175 177 39 43 48 97 26 147z"/>
<glyph unicode="&#85;" d="M449 323l-84-84c-16-17-38-26-62-26-1 0-3 0-4 0 1-24-8-49-26-66l-83-84c-17-17-39-26-63-26-24 0-46 9-62 26l-2 2c-17 16-26 38-26 62 0 24 9 46 26 63l84 83c16 17 38 26 62 26 1 0 3 0 4 0-1 24 8 49 26 66l84 84c16 17 38 26 62 26 24 0 46-9 62-26l2-2c17-16 26-38 26-62 0-24-9-46-26-62z m-20 105l-1 1c-12 12-28 18-43 18-15 0-31-6-43-18l-83-83c-17-18-22-42-14-64l-15-15c-7 2-14 4-21 4-16 0-31-6-43-18l-83-83c-24-24-24-62 0-86l1-1c12-12 28-18 43-18 16 0 31 6 43 18l83 83c17 18 22 42 14 64l15 15c7-2 14-4 21-4 16 0 31 6 43 18l83 83c24 24 24 62 0 86z m-88-122c4 10 3 22-5 30-5 5-12 7-19 7-4 0-7-1-11-2l58 58c5 4 11 7 17 7 6 0 12-3 16-7l2-2c9-9 9-24 0-33z m-210-200c-6 0-12 3-16 7l-2 2c-9 9-9 24 0 33l59 58c-5-9-3-21 5-29 5-5 12-8 18-8 4 0 8 1 11 3l-58-59c-5-4-11-7-17-7z"/>
<glyph unicode="&#86;" d="M432 325l0-240c0-28-22-50-49-50l-254 0c-27 0-49 22-49 50l0 342c0 28 22 50 49 50l170 0c5 0 9-2 12-6l118-133c3-4 3-8 3-13z m-118 98l0-55c0-11 9-20 20-20l46 0z m89-104l-69 0c-27 0-49 22-49 49l0 79-156 0c-11 0-20-9-20-20l0-342c0-11 9-20 20-20l254 0c11 0 20 9 20 20z m-81-123l-140 0c-9 0-16 7-16 16 0 9 7 16 16 16l140 0c9 0 16-7 16-16 0-9-7-16-16-16z m-69-70c-9 0-16 8-16 17l0 140c0 8 7 16 16 16 9 0 16-8 16-16l0-140c0-9-7-17-16-17z"/>
<glyph unicode="&#87;" d="M498 73l-203 183 203 183c4 4 7 9 7 15 0 11-10 21-23 21 0 0 0 0 0 0-5 0-10-2-14-5l-275-198c-6-4-9-10-9-16 0-7 3-13 9-17l275-197c9-7 23-6 31 2 8 8 8 21-1 29z m-184 0l-203 183 203 183c4 4 7 9 7 15 0 11-10 21-23 21 0 0 0 0 0 0-5 0-10-2-14-5l-275-198c-6-4-9-10-9-16 0-7 3-13 9-17l275-197c9-7 23-6 31 2 8 8 8 21-1 29z"/>
<glyph unicode="&#88;" d="M364 148c-15-18-14-19-20-27-8-11-19-27-62-82-7-9-17-14-28-14-10 0-20 5-27 14-1 2-52 79-80 112l-3 2-1 2c-30 33-74 101-74 147 0 102 81 185 186 185 104 0 188-83 188-185 0-60-71-145-79-154z m-109 310c-88 0-160-70-160-156 0-38 44-104 71-136 29-34 82-107 84-110 1-1 2-2 4-2 2 0 3 1 5 3 42 54 51 69 59 78 6 8 11 15 26 35 31 42 70 97 70 132 0 86-72 156-159 156z m0-228c-49 0-88 38-88 86 0 47 39 86 88 86 48 0 87-39 87-86 0-48-39-86-87-86z m0 143c-33 0-59-26-59-57 0-32 26-57 59-57 32 0 58 25 58 57 0 31-26 57-58 57z"/>
<glyph unicode="&#89;" d="M485 256c0-11-6-20-16-24 0 0-89-35-90-36 0-17 0-52 0-52 0-8-3-15-9-20-4-3-40-31-111-31-31 0-57 5-78 15-17 8-25 17-28 19-1 2-2 4-3 5-1-1-2-3-3-4-5-7-13-11-21-11l-29 0c-8 0-16 4-21 11-3 4-5 10-5 15 0 3 1 6 2 9 0 0 2 6 4 12-2 6-4 12-4 18 0 9 3 17 8 23 0 6 0 8 0 16-14 5-31 13-31 13-10 4-16 13-17 24 0 0 0 0 0 0 0 10 6 20 16 24l208 93c4 2 7 3 11 3 4 0 8-1 12-3l191-95c9-4 14-13 14-23 0-1 0-1 0-1z m-312-112c0 0 22-25 86-25 63 0 94 25 94 25l0 67c0 0-29 31-90 31-60 0-90-31-90-31z m-26 18c0 1 0 1 0 2 0 0 0-1 0-1 0-1 0-1 0-1z m121 189l-208-93 47-20 0-44c-5-2-8-7-8-12 0-5 4-10 8-12l-9-27 28 0-10 27c6 2 9 6 9 12 0 6-3 11-9 12l0 40 33-13c0 0 58 44 117 44 60 0 103-44 103-44l90 36z m-6-180c42 0 76-8 76-19 0-10-34-18-76-18-42 0-76 8-76 18 0 11 34 19 76 19z"/>
<glyph unicode="&#90;" d="M253 369c-14 0-26-12-26-26l0-91c0-14 12-26 26-26 15 0 27 12 27 26l0 91c0 14-12 26-27 26z m0 125c-132 0-240-108-240-240 0-133 108-241 240-241 133 0 241 108 241 240 0 133-108 241-241 241z m0-428c-103 0-187 84-187 188 0 103 84 187 187 187 104 0 188-84 188-188 0-103-84-187-188-187z m0 125c-14 0-26-12-26-27 0-14 12-26 26-26 15 0 27 12 27 26 0 15-12 27-27 27z"/>
<glyph unicode="&#48;" d="M469 270c-3-9-8-16-14-21 5-6 11-14 13-26 2-5 2-11 2-16 0-23-11-44-32-58-16-12-38-18-61-18-11 0-22 2-33 5-22 6-38 16-51 27 3-24 15-45 31-71 3-4 4-9 4-14 0-4-1-9-2-12l-1-1c-3-7-10-13-17-15l0 0c-1 0-3-2-4-2-6-4-15-9-29-10-1 0-2 0-2 0-11 0-21 5-26 14l-20 35c-1 1-1 2-2 3-10 24-13 51-13 71-19-14-41-26-70-31-4 0-8-1-13-1-21 0-42 9-58 24-17 15-26 35-26 56 0 6 1 12 2 18 3 11 9 20 15 26-4 5-8 12-10 20-3 6-4 13-4 20 0 20 10 40 27 55 16 14 37 22 57 22 3 0 6 0 9 0-5 11-7 23-7 35 0 16 5 41 33 63 13 9 29 15 46 15 14 0 27-4 38-10 2-2 5-4 8-7 5 4 10 9 17 13 4 3 10 5 15 5l3 0c23 0 45-7 62-20 20-15 31-36 31-60 0-8-2-16-4-24-1-3-2-6-3-9 4 0 8 1 13 1 21 0 41-9 56-25 15-15 23-34 23-55 0-7-1-15-3-22z m-227 180c-1 0-1 0-1-1 0 1 1 1 1 1 0 0 0 0 0 0z m142-107c-31-6-58-30-83-46 3 9 10 15 15 22 14 21 31 43 39 69 12 42-24 69-63 68-13-8-20-19-32-28 0-1-21 18-25 21-15 9-37 7-49-3-62-48 18-113 39-151-26 18-49 40-85 47-33 5-71-27-60-61 4-14 16-20 25-29-11-9-25-16-29-32-9-35 26-68 61-62 51 8 76 44 109 69 1 0 2-1 2-1-10-39-10-91 5-126 6-11 13-23 20-34 11 0 16 7 25 10 1 1 1 1 1 2-26 40-49 84-29 147 27-24 43-51 83-63 41-12 96 9 87 56-3 13-14 18-19 28-3 3-5 5-7 7 8 6 23 14 26 25 11 36-21 72-56 65z"/>
<glyph unicode="&#49;" d="M467 127c-11-21-30-34-52-34-31 0-56 20-80 40-24 19-50 39-79 39-36 0-54-17-74-37-21-20-45-43-86-43-22 0-40 13-51 34-7 15-11 35-11 59 0 45 14 101 36 146 29 57 68 89 110 89 12 0 24-6 38-12 13-5 28-12 38-12 10 0 25 7 37 12 14 6 27 12 40 12 42 0 81-32 109-89 22-44 36-99 36-145 0-24-4-43-11-59z m-134 265c-17 0-49-24-77-24-27 0-61 24-76 24-101 0-159-272-84-272 64 0 73 80 160 80 71 0 112-79 159-79 76 0 19 271-82 271z m53-124c-7 0-12 6-12 12 0 7 5 12 12 12 6 0 12-5 12-12 0-6-6-12-12-12z m-35-35c-7 0-12 5-12 12 0 6 5 11 12 11 6 0 11-5 11-11 0-7-5-12-11-12z m0 71c-7 0-12 5-12 11 0 7 5 12 12 12 6 0 11-5 11-12 0-6-5-11-11-11z m-36-36c-7 0-12 6-12 12 0 7 5 12 12 12 6 0 11-5 11-12 0-6-5-12-11-12z m-141-29c-29 0-53 24-53 53 0 29 24 53 53 53 29 0 53-24 53-53 0-29-24-53-53-53z m0 82c-16 0-29-13-29-29 0-16 13-30 29-30 16 0 29 14 29 30 0 16-13 29-29 29z"/>
<glyph unicode="&#50;" d="M452 234c-96-108-181-184-182-185-4-3-9-5-14-5-5 0-10 2-14 5-1 1-86 77-182 185-40 44-50 101-27 152 22 50 69 82 120 82 51 0 84-23 103-47 19 24 52 47 103 47 51 0 98-32 120-82 23-51 13-108-27-152z m3 139c-16 37-51 62-87 62-74 0-89-57-89-59-3-10-11-17-22-17-10 0-19 7-21 17-2 6-18 59-89 59-36 0-71-25-87-62-18-39-10-81 21-116 77-86 147-153 176-180 30 27 100 94 177 180 31 35 39 77 21 116z m-41-63c0 0-1 0-1 0-10 0-18 7-19 17-2 32-24 36-25 36-10 1-17 11-16 21 1 10 10 17 21 15 18-2 54-20 57-70 1-10-7-18-17-19z"/>
<glyph unicode="&#51;" d="M387 27l-323 0c-16 0-30 14-30 30l0 322c0 16 14 29 30 29l321 0c16 0 31-13 31-29l0-322c0-16-12-30-29-30z m0 352l-323 0 0-323 323 0z m74-298c-8 0-14 7-14 15l0 328c0 8-6 15-15 15l-294 0c-8 0-15 6-15 14 0 8 7 15 15 15l293 0c25 0 45-20 45-45l0-327c0-8-7-15-15-15z m-104 165l-108-136c-5-6-15-7-21-3l-62 46-53-63c-3-3-7-5-12-5-3 0-7 1-9 4-7 5-7 15-2 21l63 73c5 6 14 7 20 3l61-46 99 125c5 6 15 7 21 2 7-5 8-15 3-21z m-198 14c-17 0-30 14-30 30 0 17 13 31 30 31 16 0 30-14 30-31 0-16-14-30-30-30z"/>
<glyph unicode="&#52;" d="M256 283c-14 0-26-11-26-26l0-88c0-15 12-27 26-27 14 0 26 12 26 27l0 88c0 15-12 26-26 26z m0 209c-130 0-236-106-236-236 0-130 106-236 236-236 130 0 236 106 236 236 0 130-106 236-236 236z m0-420c-101 0-183 83-183 184 0 101 82 183 183 183 101 0 183-82 183-183 0-101-82-184-183-184z m0 298c-14 0-26-12-26-27 0-14 12-26 26-26 14 0 26 12 26 26 0 15-12 27-26 27z"/>
<glyph unicode="&#53;" d="M412 211l-312 0c-19 0-35 16-35 35 0 20 16 36 35 36l312 0c20 0 36-16 36-36 0-19-16-35-36-35z"/>
<glyph unicode="&#54;" d="M454 400l-122 47-6 0-5 0-131-46-116 46-6 0c-6 0-12-1-17-5-7-4-10-11-10-18l0-279c0-11 9-20 21-23l122-46 6-1 5 1 131 45 116-45 6-1c6 0 12 2 17 6 7 4 10 11 10 18l0 279c0 11-9 20-21 22z m-250-18l108 38 0-279-108-37z m-136 42l109-41 0-279-109 41z m380-325l-109 41 0 279 109-41z"/>
<glyph unicode="&#55;" d="M443 74l-374 0c-28 0-50 23-50 50l0 264c0 27 22 50 50 50l374 0c28 0 50-23 50-50l0-264c1-27-22-50-50-50z m-374 17l374 0c9 0 18 4 24 10l-125 125-47-46c-11-11-24-17-39-17-15 0-29 6-39 17l-46 45-125-125c6-5 14-9 23-9z m-33 33c0-3 0-6 1-8l122 121-123 124z m440 264c0 18-15 33-33 33l-374 0c-18 0-33-15-33-33l0-3 193-193c7-7 17-11 27-11 10 0 19 4 27 11l193 193z m0-27l-122-122 121-122c1 2 1 5 1 7z m-44-278l-354 0c-26 0-47 22-47 48l0 249c0 26 21 48 47 48l354 0c26 0 51-18 51-44l0-249c0-26-25-52-51-52z m-354 17l354 0c9 0 17 3 22 9l-118 119-44-45c-10-10-23-15-37-15-14 0-27 6-37 15l-43 43-118-118c5-5 13-8 21-8z m-31 31c0-3 0-6 1-8l115 115-116 116z m416 249c0 17-14 31-31 31l-354 0c-17 0-31-14-31-31l0-2 183-183c6-7 15-11 25-11 9 0 18 4 25 11l183 183z m0-25l-115-116 114-115c1 2 1 5 1 7l0 224z"/>
<glyph unicode="&#56;" d="M464 106l-92 93c18 28 28 61 28 97 0 101-82 183-183 183-101 0-183-82-183-183 0-100 82-183 183-183 34 0 66 10 94 26l93-93c40-40 100 20 60 60z m-373 190c0 70 57 127 126 127 70 0 127-57 127-127 0-69-57-126-127-126-69 0-126 57-126 126z m38 33c36 86 161 76 184-14-47 56-130 62-184 14z"/>
<glyph unicode="&#57;" d="M411 468c-8 8-22 9-32 3l-275-198c-5-4-8-10-8-16 0-7 3-13 8-17l275-198c5-3 10-4 15-4 0 0 0 0 0 0 12 0 22 9 22 20 0 6-2 12-7 15l-202 184 203 183c8 7 9 20 1 28z"/>
<glyph unicode="&#33;" d="M7 439l203-183-203-183c-4-4-7-9-7-15 0-11 10-21 22-21 1 0 1 0 1 0 5 0 10 2 14 5l275 198c6 4 9 10 9 16 0 7-3 13-9 17l-275 197c-10 7-23 6-31-2-8-8-8-21 1-29z m184 0l203-183-203-183c-4-4-7-9-7-15 0-11 10-21 22-21 1 0 1 0 1 0 5 0 10 2 14 5l275 198c6 4 9 10 9 16 0 7-3 13-9 17l-275 197c-10 7-23 6-31-2-8-8-8-21 1-29z"/>
<glyph unicode="&#57;" d="M102 440l203-183-202-184c-5-3-7-9-7-15 0-11 10-20 22-20 0 0 0 0 0 0 5 0 10 1 15 4l275 198c5 4 8 10 8 17 0 6-3 12-8 16l-276 198c-9 6-23 5-31-3-8-8-7-21 1-28z"/>
<glyph unicode="&#34;" d="M411 468c-8 8-22 9-32 3l-275-198c-5-4-8-10-8-16 0-7 3-13 8-17l275-198c5-3 10-4 15-4 0 0 0 0 0 0 12 0 22 9 22 20 0 6-2 12-7 15l-202 184 203 183c8 7 9 20 1 28z"/>
<glyph unicode="&#35;" d="M490 57c-1-2-1-2-2-3 0-1 0-2-1-3-1-2-2-4-3-6 0-1-1-2-1-2-2-3-4-5-6-7 0-1-1-1-1-1-2-2-4-4-6-5-1-1-2-1-3-2-1-1-3-2-5-3-1 0-2-1-3-1-2-1-4-2-6-2-1 0-2-1-3-1-3 0-6-1-10-1l0 0c0 0 0 0 0 0-3 0-6 1-9 1-1 0-2 1-3 1-2 0-4 1-6 2-1 0-2 1-4 1-1 1-2 2-4 3-1 0-2 1-4 2-1 1-2 2-4 3 0 1-1 1-2 2l-89 84 0-40c0-24-20-44-44-44l-207 0c-24 0-44 20-44 44l0 207c0 24 20 44 44 44l56 0-51 51c-1 0-1 1-1 1-3 0-5-1-8-1-8 0-15 3-21 9l-10 10c-6 6-9 13-9 21 0 8 3 15 9 21l41 42c11 11 31 11 42 0l10-11c6-5 9-13 9-21 0-2 0-5-1-8 0 0 1 0 1 0l66-66c8 7 18 11 29 11l45 0c24 0 44-20 44-44l0-40 89 84c7 7 16 12 25 14 1 0 1 0 1 0 3 0 7 1 10 1l0 0c29 0 52-23 52-52l0-287c0-3-1-6-2-8z m-430 339l0 15 0 0z m31 67l-41-42 10-10 42 41z m21-42l-21-21 70-70 7 0c8 0 14 7 14 15 0 2 1 3 1 5z m174-76c0 8-7 15-15 15l-44 0c-9 0-15-7-15-15 0-25-20-44-44-44l-104 0c-8 0-14-7-14-15l0-207c0-8 6-15 14-15l207 0c8 0 15 7 15 15z m103-11l-74-69 0-106 74-69z m51 40c-1 0-3 0-4 0 0 0 0 0 0 0-10-2-18-11-18-22l0-283c0 0 1-1 1-2 1-4 3-9 7-12 0 0 1 0 1-1 2-1 4-2 6-3 0 0 0 0 0 0 3-1 5-1 7-1l0 0c3 0 5 0 7 1 1 0 1 0 1 0 2 1 4 2 6 3 0 1 0 1 1 1 1 2 3 3 4 5 0 0 0 1 0 1 2 2 3 4 3 6 0 2 0 3 0 5l0 280c1 12-9 22-22 22z m-243-265c-11 0-22 4-29 11-8-7-19-11-30-11-24 0-44 20-44 44 0 24 20 44 44 44 11 0 22-4 30-11 7 7 18 11 29 11 24 0 44-20 44-44 0-24-20-44-44-44z m-59 59c-8 0-15-7-15-15 0-8 7-15 15-15 8 0 15 7 15 15 0 8-7 15-15 15z m59 0c-8 0-15-7-15-15 0-8 7-15 15-15 8 0 15 7 15 15 0 8-7 15-15 15z"/>
<glyph unicode="&#36;" d="M471 212c-14 18-34 27-61 27-8 0-16-1-22-3-6-2-12-5-17-8 2 29 9 51 21 64 13 14 27 24 41 32 15 7 29 13 41 18 12 5 18 14 18 27 0 9-3 17-9 24-7 7-17 10-30 10-9 0-18-2-29-6-10-3-20-8-29-13-10-5-19-10-27-16-8-5-14-10-19-14-17-18-31-39-42-61-10-23-16-53-16-92 0-20 2-38 6-56 5-17 11-32 20-45 9-14 20-24 34-32 13-7 29-11 48-11 25 0 48 9 66 27 18 19 27 41 27 67 0 22-7 43-21 61z m-259 0c-14 18-35 27-61 27-9 0-16-1-22-3-6-2-12-5-17-8 1 29 8 51 21 64 13 14 26 24 41 32 15 7 29 13 41 18 12 5 18 14 18 27 0 9-3 17-10 24-6 7-16 10-29 10-9 0-19-2-29-6-10-3-20-8-30-13-9-5-18-10-26-16-8-5-14-10-19-14-17-18-31-39-42-61-11-23-16-53-16-92 0-20 2-38 6-56 4-17 11-32 20-45 8-14 20-24 33-32 14-7 30-11 48-11 26 0 48 9 67 27 18 19 27 41 27 67 0 22-7 43-21 61z"/>
<glyph unicode="&#37;" d="M461 242c-1-1-32-29-57-50 2-1 3-1 4-2 11-5 19-13 26-20 9-11 14-24 14-38 0-19-10-39-27-55-16-15-38-24-59-24-11 0-21 2-30 6-17 9-26 19-31 29-10-10-22-24-34-38-5-6-13-10-21-10-5 0-10 2-15 5-4 3-44 28-61 52l0-1c-5 7-8 15-8 24 0 8 3 16 7 23-5-2-11-3-18-3-9 0-18 2-26 7-9 5-25 16-55 56-15 20-27 38-28 39-3 4-4 10-4 15 0 9 4 17 12 23 15 11 34 25 47 36-13 2-24 8-33 17-12 12-18 27-18 44 0 21 9 41 26 58 20 19 41 28 62 28 18 0 36-7 49-21 8-9 14-19 17-29 14 14 31 34 43 48 5 6 12 10 19 10 1 1 2 1 2 1 7 0 14-3 19-7 9-8 56-50 70-67 6-8 9-17 9-26 0-2 0-5-1-7 3 0 7 1 10 1 10 0 20-4 28-11 23-20 61-70 66-76 3-5 5-11 5-17 0-7-3-15-9-20z m-80 92c-15 13-30-7-25-23 4-17-31-43-58-13-26 28-6 65 18 62 16-3 23 11 15 21-12 16-66 63-66 63 0 0-47-58-71-73-10-7-30 6-21 24 8 16-30 70-81 20-36-35-14-78 22-72 6 0 36-9 22-28-13-18-71-58-71-58 0 0 48-72 73-86 19-10 33 3 30 14-3 11 17 40 49 15 41-32 6-62-7-61-14 1-25-17-18-26 15-20 54-45 54-45 0 0 54 64 65 65 20 2 15-12 14-20-2-14 7-23 19-29 19-9 44-1 59 13 14 14 26 36 10 55-14 16-19 15-35 15-21 0-25 16-13 27 21 18 78 68 78 68 0 0-40 53-62 72z m-51-1c-3-1-7-1-10-1-2 0-4 0-5 0-1-1-2-3-2-5 0-3 2-7 5-11 2-2 5-4 8-4 1 0 1 0 2 0 0 2-1 3-1 5 0 5 1 11 3 16z m-139-170c5 2 10 3 16 3 1 1 1 2 2 3 0 0-1 4-9 10-2 1-3 2-4 2 0-6-2-13-5-18z m19 3c1 0 2 0 2 0 0 0 0 0 0 0l-1 0c0 0 0 0-1 0z"/>
<glyph unicode="&#38;" d="M425 46l-343 0c-31 0-57 26-57 58l0 328c0 32 26 58 57 58l343 0c32 0 57-26 57-58l0-328c0-32-25-58-57-58z m29 386c0 16-13 29-29 29l-343 0c-16 0-28-13-28-29l0-328c0-16 12-29 28-29l343 0c16 0 29 13 29 29z m-120-120l-133-134c-8-8-22-8-30 0-9 9-9 23 0 31l133 133c8 9 22 9 30 0 9-8 9-22 0-30z m0-132c-8-9-22-9-30 0l-133 133c-9 8-9 22 0 30 8 9 22 9 30 0l133-133c9-8 9-22 0-30z"/>
<glyph unicode="&#39;" d="M434 31l-347 0c-32 0-58 26-58 58l0 332c0 32 26 58 58 58l347 0c32 0 58-26 58-58l0-332c0-32-26-58-58-58z m29 390c0 16-13 29-29 29l-347 0c-16 0-29-13-29-29l0-332c0-16 13-29 29-29l347 0c16 0 29 13 29 29l0 332z m-223-257c-8-8-22-8-31 0l-62 63c-9 9-9 22 0 31 8 8 22 8 31 0l62-63c9-8 9-22 0-31z m136 135l-135-135c-9-8-22-8-31 0-8 9-8 23 0 31l135 135c8 8 22 8 31 0 8-9 8-23 0-31z"/>
<glyph unicode="&#40;" d="M436 14l-356 0c-32 0-59 27-59 60l0 340c0 33 27 60 59 60l356 0c33 0 59-27 59-60l0-340c0-33-26-60-59-60z m30 400c0 17-14 30-30 30l-356 0c-16 0-29-13-29-30l0-340c0-17 13-30 29-30l356 0c16 0 30 13 30 30z m-113-190l-195 0c-12 0-22 10-22 22 0 13 10 23 22 23l195 0c13 0 23-10 23-23 0-12-10-22-23-22z m-96-97c-13 0-23 10-23 23l0 195c0 12 10 22 23 22 12 0 22-10 22-22l0-195c0-13-10-23-22-23z"/>
<glyph unicode="&#40;" d="M494 200l-67-66c-4-4-9-6-15-6-6 0-11 2-15 6l-67 66c-8 9-8 22 0 31 9 8 22 8 31 0l30-30 0 141-188 0c-12 0-22 9-22 21 0 12 10 22 22 22l209 0c12 0 22-10 22-22l0-162 30 30c8 8 21 8 30 0 8-9 8-22 0-31z m-184-73l-210 0c-12 0-21 10-21 22l0 162-31-30c-8-8-21-8-30 0-8 9-8 22 0 31l67 66c4 4 9 6 15 6 6 0 11-2 15-6l67-66c8-9 8-22 0-31-5-4-10-6-16-6-5 0-10 2-15 6l-30 30 0-141 188 0c12 0 22-9 22-21 0-12-10-22-21-22z"/>
<glyph unicode="&#41;" d="M435 371l-82 0c-13 0-24-11-24-25 0-13 11-24 24-24l58 0 0-213-336 0 0 213 128 0-39-39c-10-10-10-25 0-35 4-5 11-7 17-7 6 0 12 2 17 7l81 81c4 5 7 11 7 17 0 7-3 13-7 17l-81 81c-10 10-25 10-34 0-10-9-10-25 0-34l39-39-153 0c-13 0-24-11-24-25l0-261c0-14 11-24 24-24l385 0c14 0 24 10 24 24l0 261c0 14-10 25-24 25z"/>
<glyph unicode="&#42;" d="M337 238l-163 0c-7 0-13 6-13 14 0 7 6 13 13 13l163 0c8 0 14-6 14-13 0-8-6-14-14-14z m0-62l-163 0c-7 0-13 6-13 13 0 7 6 14 13 14l163 0c8 0 14-7 14-14 0-7-6-13-14-13z m0-63l-163 0c-7 0-13 6-13 13 0 8 6 14 13 14l163 0c8 0 14-6 14-14 0-7-6-13-14-13z m97 213l0-243c0-28-22-50-50-50l-256 0c-28 0-50 22-50 50l0 346c0 28 22 50 50 50l171 0c6 0 9-2 13-6l119-134c3-4 3-8 3-13z m-119 99l0-56c0-11 9-20 20-20l46 0z m89-106l-69 0c-28 0-50 23-50 50l0 80-157 0c-11 0-20-9-20-20l0-346c0-11 9-20 20-20l256 0c11 0 20 9 20 20z"/>
<glyph unicode="&#43;" d="M434 322l0-244c0-28-23-51-50-51l-259 0c-28 0-50 23-50 51l0 348c0 28 22 51 50 51l173 0c5 0 9-2 12-6l120-136c3-3 4-7 4-13z m-121 100l0-56c0-11 10-20 21-20l47 0z m91-106l-71 0c-27 0-50 22-50 50l0 81-158 0c-11 0-20-10-20-21l0-348c0-11 9-21 20-21l259 0c10 0 20 10 20 21l0 238z m-88-177c-7-6-17-6-23 0l-101 101c-7 6-7 17 0 23 6 6 17 6 23 0l101-101c6-6 6-17 0-23z m1 101l-101-101c-6-6-17-6-23 0-7 6-7 17 0 23l101 101c6 6 16 6 23 0 6-6 6-17 0-23z"/>
<glyph unicode="&#44;" d="M410 305c-7 5-17 4-22-3l-148-206c-1 0-1 0-1 0 0-1 0-2-1-2-21-30-63-37-93-15-29 21-36 63-15 93 0 0 0 0 0 0 0 0 0 0 0 0l184 256c15 19 42 24 62 9 20-14 24-41 10-61 0-1-116-161-133-184 0 0 0 0 0 0-1-2-2-3-3-4-6-9-19-11-28-4-9 6-11 19-4 28 0 0 1 2 2 3l97 135c5 7 4 17-3 22-7 5-17 3-22-4l-99-137c0 0 0-1-1-2 0 0 0 0 0 0-16-23-10-54 12-70 23-17 55-12 71 11 1 1 2 2 2 3 0 0 0 0 0 0 12 16 136 188 136 188 22 33 14 78-19 102-33 24-80 16-104-17 0 0 0 0 0 0l-186-257c0 0-1-2-1-3 0 0 0 1 0 1-29-44-18-103 24-133 42-30 99-23 132 16 0 0 0 0 0 0 0 0 3 4 3 4l151 210c5 7 4 16-3 21z"/>
<glyph unicode="&#45;" d="M469 336l-151-146 0 88c-46 0-163-1-163-121 0-63 45-115 104-127-95 13-169 93-169 192 0 184 196 185 228 185l0 75z"/>
<glyph unicode="&#46;" d="M480 309c-9 9-23 9-31 0l-35-35c-9 99-93 176-194 176-107 0-194-87-194-194 0-107 87-194 194-194 40 0 78 11 110 34 10 6 13 20 6 30-7 10-20 12-30 5-25-17-55-26-86-26-83 0-151 68-151 151 0 83 68 151 151 151 80 0 146-62 151-141l-43 43c-8 9-22 9-31 0-8-8-8-22 0-30l76-76c4-4 10-7 15-7 6 0 12 3 16 7l76 76c8 8 8 22 0 30z"/>
<glyph unicode="&#47;" d="M434 363l-335 0 37 37c9 9 9 23 0 32-9 9-23 9-32 0l-76-76c-4-4-6-10-6-16 0-6 2-12 6-16l76-75c4-5 10-7 16-7 6 0 12 2 16 7 9 9 9 23 0 32l-37 37 312 0 0-199-336 0c-12 0-22-10-22-23 0-12 10-22 22-22l359 0c12 0 22 10 22 22l0 244c0 13-10 23-22 23z"/>
<glyph unicode="&#58;" d="M486 310c1-29-17-69-39-89l-193-173c-10-9-23-13-35-13-15 0-30 6-40 17l-130 145c-20 22-18 56 4 76l193 173c20 17 54 29 82 29 4 0 8 0 11 0l101-2c30-3 54-31 55-60z m-50 132l-101 1c-2 0-4 0-7 0-20 0-47-9-60-21l-193-173c-9-8-10-21-2-30l130-145c5-6 12-7 16-7 5 0 10 2 14 5l193 173c15 13 28 45 28 65l9 102c-1 14-13 28-27 30z m-72-147c-31 0-56 25-56 57 0 31 25 56 56 56 31 0 57-25 57-56 0-32-26-57-57-57z m0 81c-13 0-24-11-24-24 0-14 11-25 24-25 14 0 25 11 25 25 0 13-11 24-25 24z"/>
<glyph unicode="&#59;" d="M391 29c-3 0-6 1-8 2l-127 67-127-67c-6-3-14-3-19 1-6 5-9 12-8 19l24 141-102 100c-5 5-7 12-5 19 2 7 8 12 15 13l142 20 63 129c3 6 10 10 17 10 7 0 14-4 17-10l63-129 142-20c7-1 13-6 15-13 2-7 0-14-5-19l-102-100 23-139c1-1 1-3 1-5 0-11-8-19-18-19 0 0 0 0-1 0z m-135 109c3 0 6-1 9-3l102-53-20 113c-1 6 1 13 5 17l83 80-114 17c-6 1-11 4-14 10l-51 103-51-103c-3-6-8-9-14-10l-114-17 83-80c4-4 6-11 5-17l-19-113 101 53c3 2 6 3 9 3z"/>
<glyph unicode="&#60;" d="M436 14l-356 0c-32 0-59 27-59 60l0 340c0 33 27 60 59 60l356 0c33 0 59-27 59-60l0-340c0-33-26-60-59-60z m30 400c0 17-14 30-30 30l-356 0c-16 0-29-13-29-30l0-340c0-17 13-30 29-30l356 0c16 0 30 13 30 30z m-113-190l-195 0c-12 0-22 10-22 22 0 13 10 23 22 23l195 0c13 0 23-10 23-23 0-12-10-22-23-22z m-96-97c-13 0-23 10-23 23l0 195c0 12 10 22 23 22 12 0 22-10 22-22l0-195c0-13-10-23-22-23z"/>
<glyph unicode="&#61;" d="M444 25l-363 0c-33 0-60 28-60 61l0 347c0 34 27 61 60 61l363 0c33 0 60-27 60-61l0-347c0-33-27-61-60-61z m30 408c0 17-14 30-30 30l-363 0c-16 0-30-13-30-30l0-347c0-17 14-30 30-30l363 0c16 0 30 13 30 30z m-114-194l-199 0c-13 0-23 10-23 23 0 13 10 23 23 23l199 0c12 0 22-10 22-23 0-13-10-23-22-23z"/>
<glyph unicode="&#62;" d="M492 232c0 0-95-119-236-119-141 0-236 119-236 119-11 13-11 35 0 48 0 0 95 119 236 119 141 0 236-119 236-119 11-13 11-35 0-48z m-24 29c-1 1-88 107-212 107-124 0-211-106-212-107-1-2-1-8 0-10 1-1 88-107 212-107 125 0 211 106 212 107 1 2 1 8 0 10z m-212-96c-50 0-91 41-91 91 0 50 41 91 91 91 50 0 91-41 91-91 0-50-41-91-91-91z m0 150c-2 0-4 0-6 0 6-6 11-15 11-25 0-19-16-34-34-34-12 0-22 6-28 15-2-5-2-10-2-15 0-33 26-59 59-59 33 0 59 26 59 59 0 33-26 59-59 59z"/>
<glyph unicode="&#63;" d="M263 177c-67 0-121 66-121 149 0 82 54 149 121 149 67 0 121-67 121-149 0-83-54-149-121-149z m0 271c-52 0-94-55-94-122 0-68 42-122 94-122 52 0 94 54 94 122 0 67-42 122-94 122z m171-393l-333 0c-22 0-41 13-41 36l0 9c0 21 15 42 35 49l141 56c7 2 15-1 18-8 2-7-2-15-9-18l-141-55c-9-3-17-14-17-24l0-9c0-8 6-9 14-9l333 0c8 0 14 1 14 9l0 9c0 10-8 21-17 24l-143 59c-7 3-11 10-8 17 2 8 10 11 17 9l143-60c20-7 35-28 35-49l0-9c0-23-18-36-41-36z"/>
<glyph unicode="&#64;" d="M436 44l-360 0c-21 0-38 17-38 38l0 165c0 11 9 19 20 19 11 0 20-8 20-19l0-163 356 0 0 163c0 11 9 19 20 19 11 0 20-8 20-19l0-165c0-21-17-38-38-38z m-119 287c-6 0-11 3-15 7l-24 27 0-181c0-11-9-20-20-20-10 0-19 9-19 20l0 181-24-27-1 0c-3-4-8-7-14-7-10 0-18 8-19 18 0 0 0 1 0 2 0 0 0 1 0 1 0 0 0 0 0 0 0 5 2 9 5 12l58 65 0 0c4 3 9 6 14 6 6 0 11-3 15-6l0 0 58-65c3-3 5-7 5-12 0 0 0-1 0-1 0-11-8-20-19-20z"/>
<glyph unicode="&#91;" d="M471 231c-4-25-15-47-33-65-17-17-39-29-64-33-7-2-16-2-25-2-36 0-70 14-98 42-29-29-59-42-97-42-36 0-66 12-90 35-1 1-1 2-2 2-16 18-27 39-31 63-1 8-2 17-2 26 0 35 12 65 36 89 23 23 53 35 89 35 35 0 69-14 97-41 28 28 58 41 98 41 36 0 66-12 89-35 0 0 0 0 0 0 24-24 35-54 35-90l0 0c0-9 0-17-2-25z m-53 95c0 0 0 0 0 0l0 0c-18 18-41 27-69 27-32 0-56-10-80-36 1-1 2-3 3-4 0 0 0 0 0 0l0 0c0 0 0 0 0 0l0 0c0 0 0 0 0 0 0 0 0 0 0 0l27-36c17 18 32 24 48 24 12 0 23-4 31-13 0 0 0 0 0 0 5-6 9-12 11-19 1-4 1-8 1-13 0-1 0-3 0-5-1-10-5-19-12-27-8-9-19-13-31-13-15 0-32 8-48 24-6 6-11 13-17 21l-30 41c-6 7-12 14-18 20-24 24-51 36-80 36-28 0-51-9-69-27-19-18-28-41-28-69 0-8 1-14 2-21 3-19 12-36 25-50 0 0 0 0 0 0 18-18 42-27 70-27 31 0 55 10 79 37-1 1-2 2-3 4l-27 35c-16-18-32-24-47-24-13 0-23 4-32 13l0 1c-8 8-12 19-12 31 0 3 0 6 1 9 1 9 5 16 11 23 6 5 11 9 18 11 4 1 9 2 13 2 15 0 33-8 48-24 6-6 12-13 17-21l31-40c6-8 12-15 18-22 24-23 51-35 80-35 7 0 14 1 21 2 19 3 35 12 48 25 14 14 22 30 25 50 2 6 2 13 2 20 0 28-9 52-27 70z m-71-53c-4 0-13 0-27-15 0-1-1-1-2-2 1 0 1-1 1-1 0 0 0 0 0 0 12-12 22-16 28-16 5 0 8 2 11 4 2 3 4 7 4 11 0 0 0 0 0 0 0 1 0 1 0 2l0 0c0 2 0 4 0 5-1 3-2 5-5 7 0 0 0 0 0 0 0 0 0 1 0 1 0 0 0 0 0 0-2 2-5 4-10 4z m-191-34c7 0 14 2 26 15 1 1 2 2 2 2 0 0 0 1-1 1-11 12-22 16-28 16-2 0-3-1-5-1-2-1-3-2-5-3 0 0 0 0 0-1-2-2-4-5-4-8-1-1-1-3-1-4 0-5 2-9 5-12 0 0 0 0 0 0l0 0c3-3 6-5 11-5z m282-73c0 0 0 0 0 0 0 0 0 1 0 1z"/>
<glyph unicode="&#93;" d="M476 237c-5 113-94 204-206 211l0 14c0 8-6 14-14 14-8 0-14-6-14-14l0-14c-112-7-201-98-206-211 0-3 0-6 0-9 0-7 6-13 14-13 7 0 14 6 14 13 0 31 24 55 55 55 30 0 55-24 55-55 0-7 6-13 13-13 8 0 14 6 14 13 0 26 18 47 41 54l0-177c0-23-18-41-41-41-23 0-41 18-41 41 0 7-6 13-14 13-8 0-14-6-14-13 0-38 31-69 69-69 38 0 69 31 69 69l0 177c23-7 41-28 41-54 0-7 6-13 14-13 7 0 14 6 14 13 0 31 24 55 55 55 30 0 55-24 55-55 0-7 6-13 13-13 8 0 14 6 14 13 0 3 0 6 0 9z m-82 74c-29 0-54-15-69-37-15 22-40 37-69 37-29 0-54-15-69-37-15 22-40 37-69 37-14 0-28-4-41-11 29 71 98 121 179 121 81 0 150-50 179-121-13 7-27 11-41 11z"/>
<glyph unicode="&#94;" d="M238 77c-5-8-12-13-20-13-7 0-14 4-20 10l-79 76-50 0c-25 0-40 27-40 53l0 117c0 25 16 44 40 44l57 0 72 72c7 8 14 12 22 12 10 0 22-8 22-30l0-321c0-8-2-15-4-20z m-25 335l-70-73c-3-2-7-4-11-4l-63 0c-10 0-12-8-12-15l0-117c0-12 6-24 12-24l56 0c4 0 7-2 10-4l78-77z m100-333c0 0 0 0 0 0-8 0-14 6-14 14-1 8 5 14 13 15 80 2 143 67 143 148 0 80-64 147-143 150-8 0-14 7-13 15 0 8 6 14 14 14 94-4 170-84 170-179 0-96-75-177-170-177z m-28 85c0 0 0 0-1 0-7 0-13 6-14 14 0 7 6 14 13 15 33 2 58 30 58 64 0 33-25 61-58 64-7 0-13 7-13 15 1 8 8 14 15 13 48-3 84-44 84-92 1-48-36-89-84-93z"/>
<glyph unicode="&#95;" d="M251 68c-4-9-12-14-21-14-7 0-14 4-21 11l-82 80-54 0c-26 0-42 28-42 55l0 123c0 27 18 46 42 46l61 0 75 77c8 8 15 12 23 12 11 0 23-8 23-31l0-338c0-9-1-16-4-21z m-25 352l-75-76c-3-3-7-5-11-5l-67 0c-10 0-12-9-12-16l0-123c0-12 6-25 12-25l60 0c3 0 7-2 10-5l83-80z m249-110l-129-128c-8-8-21-8-29 0-8 8-8 21 0 30l128 128c8 8 21 8 30 0 8-8 8-22 0-30z m0-127c-9-8-22-8-30 0l-128 129c-8 8-8 21 0 29 8 8 21 8 29 0l129-128c8-8 8-21 0-30z"/>
<glyph unicode="&#96;" d="M421 386l-328 0c-8 0-15 7-15 15 0 9 7 15 15 15l118 0 0 38c0 14 10 23 24 23l52 0c14 0 24-9 24-23l0-38 110 0c9 0 15-6 15-15 0-8-6-15-15-15z m-140 62l-41 0 0-32 41 0z m178-172l-38 0 0-195c0-26-20-46-46-46l-238 0c-26 0-46 20-46 46l0 195-38 0c-8 0-15 6-15 15 0 8 7 15 15 15l38 0 0 94 330 0 0-94 38 0c8 0 15-7 15-15 0-9-7-15-15-15z m-71 106l-271 0 4-301c0-9 7-16 16-16l238 0c9 0 16 7 16 16z m-212-289c-9 0-15 6-15 15l0 223c0 9 6 15 15 15 8 0 15-6 15-15l0-223c0-9-7-15-15-15z m80 0c-8 0-15 6-15 15l0 223c0 9 7 15 15 15 8 0 15-6 15-15l0-223c0-9-7-15-15-15z m80 0c-8 0-15 6-15 15l0 223c0 9 7 15 15 15 9 0 15-6 15-15l0-223c0-9-6-15-15-15z"/>
<glyph unicode="&#123;" d="M367 164c0 0-6 0-13 0 1-2 4-14 4-14 1-3 2-6 2-9 0-8-4-16-10-22l-89-80c-6-5-13-7-20-7-7 0-13 2-19 6l-96 80c-7 6-11 15-11 23 0 3 1 6 2 9l63 203c0 0 0 0 0 0 0 1 0 1 0 2l-20 89c0 2 0 5 0 7 0 6 2 13 6 18 6 7 14 11 23 11l97 0c9 0 17-4 23-11 4-5 6-11 6-18 0-2 0-4 0-6l-19-90c0 0 0 0 0-1 0 0 0-1 0-1 0 0 2-7 2-7 9-1 17-5 22-12l71-95c4-5 6-11 6-18l0-27c0-17-14-30-30-30z m-178 287l20-90 58 0 19 90z m79-107l-59 0-64-203 96-80 89 80z m99-123l-71 95 44-122 27 0z"/>
<glyph unicode="&#124;" d="M419 290l-326 0c-21 0-39-17-39-39 0-21 18-39 39-39l326 0c21 0 39 18 39 39 0 22-18 39-39 39z m0-179l-326 0c-21 0-39-18-39-39 0-22 18-39 39-39l326 0c21 0 39 17 39 39 0 21-18 39-39 39z m-326 281l326 0c21 0 39 17 39 38 0 22-18 39-39 39l-326 0c-21 0-39-17-39-39 0-21 18-38 39-38z"/>
<glyph unicode="&#125;" d="M460 376c0 0 0 0 0 0 0 0-56-55-74-72 10-46 38-178 41-191 0-1 1-5 1-5 3-9 6-18 6-29 0-14-6-26-16-36-6-7-17-15-33-15-19 0-36 12-46 32 0 0 0 0 0 0 0 0-45 88-67 132-17-16-27-26-35-34 2-19 8-64 8-64 0 0 0-1 0-2 0-5 1-9 1-13 0-9-1-13-2-17l0 0 0 0c-5-18-22-31-41-31-16 0-30 9-37 25l0 0c0 0-20 44-23 52-6 6-29 29-35 35-8 3-51 23-52 23-16 7-25 21-25 37 0 19 13 36 31 41l0 0 0 0c4 1 8 2 17 2 4 0 8-1 14-1 0 0 1 0 1 0 0 0 45-6 64-8 8 8 18 18 34 35-48 24-127 64-132 67 0 0 0 0 0 0-20 10-32 27-32 46 0 9 3 21 15 33 10 10 22 16 36 16 11 0 20-3 29-6 0 0 4-1 5-1 30-7 148-32 191-41 17 17 72 74 72 74 0 0 0 0 0 0 14 14 38 24 58 24 18 0 29-8 36-14 6-7 14-18 14-36 0-20-10-44-24-58z m-11 73c-12 11-40 1-52-10l-83-85-208 44c-18 5-31 11-42-1-12-11-4-25 9-32l169-85-72-74c0 0 0 0-1 0l-79 9c-15 2-18 1-21 0-7-2-15-15-1-22l58-26 41-41 26-58c7-14 20-6 22 1 1 3 2 6 0 21l-9 79c0 1 0 1 0 1l74 72 85-169c7-13 21-21 32-9 12 11 6 24 1 42l-44 208 85 83c11 12 21 40 10 52z m-393-283l0 0c0 0 0 0 0 0z"/>
<glyph unicode="&#126;" d="M467 209l-21 0c-4 0-10-4-12-8l-12-31c0 0 0-1-1-1-2-4-1-11 2-14l16-15c11-12 11-30 0-42l-25-25c-11-10-31-11-42 1l-15 14c-3 4-10 5-14 3 0-1-1-1-1-1l-30-12c-5-2-9-8-9-12l0-21c0-16-13-29-29-29l-36 0c-16 0-29 13-29 29l0 21c0 4-4 10-8 12l-31 12c0 0-1 0-1 1-4 2-11 1-14-3l-15-15c-11-10-31-10-42 1l-24 24c-6 6-9 13-9 21 0 8 3 15 9 21l15 15c3 3 4 10 2 14-1 0-1 1-1 1l-12 30c0 0 0 0 0 1-2 4-8 8-12 8l-21 0c-16 0-29 13-29 29l0 36c0 16 13 29 29 29l21 0c5 0 10 4 12 9l12 30c0 0 0 1 1 1 2 4 1 11-2 14l-15 15c-6 6-9 13-9 21 0 8 3 15 9 21l24 25c11 10 31 10 42 0l15-15c3-4 10-5 14-3 0 1 1 1 1 1l30 12c5 2 9 8 9 12l0 21c0 16 13 29 29 29l36 0c16 0 29-13 29-29l0-21c0-4 4-10 9-12 0 0 0 0 0 0l30-12c0 0 1 0 1-1 4-2 11-1 14 2l15 15c11 11 31 11 42 0l25-24c11-12 11-30 0-42l-15-15c-4-3-5-10-3-14 1 0 1-1 1-1l12-30c2-5 8-9 12-9l21 0c16 0 29-13 29-29l0-36c0-16-13-29-29-29z m6 65c0 3-2 6-6 6l-21 0c-14 0-29 11-34 25l-11 28c-7 13-4 30 6 41l15 15c3 2 3 6 0 8l-25 25c-1 2-3 2-4 2-1 0-3 0-4-2l-15-15c-10-10-29-13-41-6l-29 11c-14 5-24 20-24 34l0 21c0 4-3 6-6 6l-36 0c-3 0-6-2-6-6l0-21c0-14-11-29-25-34l-28-11c-12-7-31-4-41 6l-15 15c-1 2-3 2-4 2-1 0-3 0-4-2l-25-25c-2-1-2-3-2-4 0-1 0-3 2-4l15-15c10-11 13-28 6-41l-12-29c-4-13-19-24-33-24l-21 0c-4 0-6-3-6-6l0-36c0-3 2-6 6-6l21 0c14 0 29-10 33-24l12-29c7-13 4-31-6-41l-15-15c-2-1-2-3-2-4 0-1 0-3 2-4l25-25c1-2 3-2 4-2 1 0 3 0 4 2l15 15c10 10 29 13 41 6l29-12c13-4 24-19 24-33l0-21c0-4 3-6 6-6l36 0c3 0 6 2 6 6l0 21c0 14 11 29 25 34l28 11c12 7 31 4 41-6l15-15c1-2 3-2 4-2 1 0 3 0 4 2l25 25c3 2 3 6 0 8l-15 15c-10 10-13 28-6 41l12 29c4 13 19 24 33 24l21 0c4 0 6 3 6 6l0 36z m-217-118c-55 0-100 45-100 100 0 55 45 100 100 100 55 0 100-45 100-100 0-55-45-100-100-100z m0 177c-42 0-76-35-76-77 0-42 34-76 76-76 42 0 77 34 77 76 0 42-35 77-77 77z m196-120l-19 0c-4 0-10-4-11-9l-12-28c0 0 0-1 0-1-2-4-1-10 2-13l14-14c10-11 10-28 0-38l-24-24c-10-10-28-10-38 0l-14 14c-3 3-10 4-13 2 0 0-1 0-1 0l-27-12c-5-1-9-7-9-11l0-19c0-15-13-28-28-28l-32 0c-15 0-27 13-27 28l0 19c0 4-4 10-9 11l-28 12c0 0-1 0-1 0-3 2-10 1-13-2l-14-14c-10-10-28-10-38 0l-24 24c-5 5-8 11-7 19 0 7 2 14 7 19l14 14c3 3 4 9 2 13 0 0 0 1 0 1l-11 28c-1 0-1 0-1 0-1 5-6 9-11 9l-19 0c-15 0-27 12-27 27l0 32c0 15 12 27 27 27l19 0c5 0 10 4 11 9l12 28c0 0 0 1 0 1 2 4 1 10-2 13l-14 14c-5 5-7 12-7 19 0 8 2 14 7 19l24 24c10 10 28 10 38 0l14-14c3-3 10-4 13-2 1 0 1 0 1 0l28 11c5 2 9 7 9 12l0 19c0 15 12 27 27 27l32 0c15 0 27-12 27-27l0-19c0-5 5-10 9-11 0 0 0 0 1-1l27-11c0 0 1 0 1 0 3-2 10-1 13 2l14 14c10 10 28 10 38 0l24-24c10-10 10-27 0-38l-14-14c-3-3-4-9-2-13 0 0 0-1 0-1l11-28c2-5 7-9 12-9l19 0c15 0 27-12 27-27l0-32c0-15-12-27-27-27z m6 59c0 3-2 6-6 6l-19 0c-14 0-28 10-32 23l-10 26c-7 12-4 29 5 38l15 14c2 2 2 6-1 8l-23 23c-1 2-3 2-4 2-1 0-2 0-4-2l-14-14c-9-9-26-11-38-6l-26 11c-13 5-23 18-23 32l0 19c0 3-3 6-6 6l-32 0c-3 0-6-3-6-6l0-19c0-14-10-28-23-32l-26-10c-12-6-29-4-38 6l-14 13c-2 2-3 2-4 2-1 0-3 0-4-2l-23-23c-2-1-2-3-2-4 0-1 0-2 2-4l13-14c10-9 13-26 6-38l-11-27c-3-12-17-22-31-22l-19 0c-3 0-6-3-6-6l0-32c0-3 3-6 6-6l19 0c14 0 27-10 32-23l10-26c7-12 4-29-6-38l-13-14c-2-2-2-3-2-4 0-1 0-3 2-4l23-23c1-2 3-2 4-2 1 0 2 0 4 2l14 13c9 10 26 12 38 6l27-11c12-3 22-17 22-31l0-19c0-3 3-6 6-6l32 0c3 0 6 2 6 6l0 19c0 14 10 28 23 32l26 10c12 6 29 4 38-6l14-13c2-2 3-2 4-2 1 0 3 0 4 2l24 23c2 2 2 5-1 8l-13 14c-10 9-13 26-6 38l11 27c3 12 17 22 31 22l19 0c4 0 6 2 6 6l0 32z m-202-109c-51 0-93 42-93 93 0 51 42 93 93 93 51 0 93-42 93-93 0-51-42-93-93-93z m0 164c-39 0-71-32-71-71 0-39 32-71 71-71 39 0 71 32 71 71 0 39-32 71-71 71z"/>
<glyph unicode="&#57344;" d="M478 309c0-7 1-14 1-20 1-35-20-60-60-67-7-1-22 0-27 1-10 1-24 5-31 8l-17 9c-4-3-8-5-12-7l-1-1c-8-3-13-5-17-7-5-11-14-28-23-38-26-31-47-48-55-54-2-1-3-2-5-3-4-2-9-6-20-17-4-3-6-9-8-13-5-8-15-27-37-27 0 0-1 0-1 0-5 0-8 2-11 3-11 4-27 17-34 35-5 14-8 35 8 61 1 1 10 14 24 28-2 1-5 1-8 1-1 0-1 0-2 0-6 0-17-2-21-3l-1 0c-3-1-10-2-18-2-11 0-21 2-29 7-14 9-22 25-24 49-3 44 14 122 59 158 24 20 73 21 87 21 14 0 33-1 51-5 0-1 1-1 1-1 6-2 14-4 17-4 4 0 7 1 11 1 2 0 11 0 13-1 23 3 19 15 37 18 1 1 24 0 24 0 4 0 32-3 55-3 8 0 16-1 23-3 11-3 17-10 39-73 6-17 10-35 12-51z m-158-50c12 5 11 20 11 20 1 45-25 94-29 102-5 9-14 11-14 11 0 0-5 1-13 1-2 0-5 0-9 0 0 0-1 0-2 0-10 0-26 5-26 5-12 3-27 5-43 5-28 0-58-5-69-15-47-37-59-148-38-160 4-3 9-4 14-4 6 0 11 2 13 2 4 1 17 3 25 4 2 0 3 0 4 0 19 0 33-8 33-8 26-15 3-35 3-35-17-15-27-30-27-30-20-31 4-52 9-54 2 0 3-2 3-2 0 0 0 0 1 0 10 0 11 16 24 30 17 18 25 22 29 24 5 4 25 20 50 49 10 13 24 42 24 42 2 2 24 11 27 13z m91-12c20 3 39 17 38 42 0 5-2 19-2 25-2 14-6 27-12 42-13 41-16 48-16 49 0 0 0 0 0 0 0 0 0 1 0 0-5 2-20 4-26 4-18 0-47 7-47 7l-24-15c28-20 40-92 41-104 0-10 1-31-2-32-2-1-2-8 1-8 0 0 0 0 0 0 3 0 33-13 49-10z m-5 65c11 0 20-8 20-19 0-10-9-19-20-19-10 0-19 9-19 19 0 11 9 19 19 19z"/>
<glyph unicode="&#57345;" d="M58 127c7-11 22-25 52-25 19 0 44 6 72 16 12-53 33-101 74-101 41 0 63 50 75 104 28-10 52-15 72-15 32 0 47 14 54 26 23 38-12 86-56 126 8 7 16 15 23 23 37 43 47 78 30 104-7 11-22 25-52 25-19 0-44-6-72-16-12 53-33 101-74 101-41 0-63-50-75-104-28 10-52 15-72 15-32 0-47-14-54-26-23-38 12-86 56-126-8-7-16-15-22-23-38-43-48-78-31-104z m198-80c-19 0-36 32-47 82 16 7 32 15 48 24 16-8 31-15 46-22-10-51-28-84-47-84z m-59 209c0 11 0 22 1 32 8 6 17 12 26 18 11 7 21 13 31 19 11-5 21-11 32-18 9-6 18-12 27-18 1-11 1-22 1-33 0-11 0-22-1-32-8-6-17-12-26-18-11-7-21-13-31-19-11 5-21 11-32 18-9 6-18 12-27 18-1 11-1 22-1 33z m-29-11l-13 10 13 10 0-9z m32 81c1 9 2 17 3 25l21-10-16-10z m86 16c8 4 15 7 22 11 2-9 3-17 3-27l-9 6z m58-75l13-10-13-10 0 9z m-32-81c-1-9-2-17-3-25-7 3-14 6-21 10l16 10z m-102-6l16-10c-8-4-15-7-22-11-2 9-3 17-3 26z m222-33c-4-8-15-11-29-11-17 0-40 5-67 14 4 21 6 41 7 58 13 10 25 20 37 30 41-39 63-73 52-91z m-30 233c13 0 23-4 28-11 11-17-10-53-51-92-13 11-25 20-36 28-2 18-4 38-7 59 26 10 49 16 66 16z m-146 85c19 0 36-32 47-82-16-7-32-15-48-24-16 8-31 15-46 22 10 51 28 84 47 84z m-176-100c4 8 15 11 29 11 17 0 40-5 67-14-4-21-6-41-7-58-13-10-25-20-37-30-41 38-63 73-52 91z m89-158c2-18 4-38 7-59-26-10-49-16-66-16-13 0-23 4-28 11-11 17 10 53 51 92 13-11 25-20 36-28z"/>
<glyph unicode="&#57346;" d="M439 319l-253-253c-1-2-3-3-5-3l-135-42c-2 0-3 0-4 0-4 0-8 1-10 4-4 3-5 9-3 14l54 149c1 2 2 4 3 5l240 239c15 15 35 23 57 23 21 0 41-8 56-23 15-15 24-36 24-57 0-21-9-41-24-56z m-357-213c7-3 13-7 19-13 6-6 11-14 14-22l50 15 9 43-24 0c-7 0-13 6-13 14l0 27-32 0z m209 251l-1 1-161-161 21 0c8 0 14-6 14-14l0-27 27 0c4 0 8-2 11-5 2-3 3-7 2-11l-4-22 165 165 0 0c10 10 15 23 15 37 0 14-5 27-15 37-10 10-23 16-37 16-14 0-28-6-37-16z m129 55c-10 10-23 16-37 16-14 0-28-6-37-16l-1 0-12-12c19-1 37-9 51-23 14-14 22-32 23-52l13 13c10 10 15 23 15 37 0 14-5 27-15 37z m-70-89l-136-136c-2-2-6-4-9-4-4 0-7 2-10 4-5 6-5 14 0 20l136 135c5 6 14 6 19 0 5-5 5-13 0-19z"/>
<glyph unicode="&#57347;" d="M461 417l-73-268c-2-8-4-15-6-20-2-10-8-29-29-29-4 0-8 1-11 2-2 1-3 2-4 2-5 2-13 6-23 10l-48 19c-3 1-6 3-10 4-1-11-6-19-8-22-30-49-35-58-54-58-12 0-22 8-27 19-1 4-16 36-28 65-1 0-1 0-1 0-7 18-7 34 1 46 1 1 2 2 2 2-1 0-3 0-4 0-10 0-20 2-28 5l-43 17c-25 10-29 29-29 36-1 8 1 27 25 40l339 176c8 5 16 7 24 7 12 0 22-5 29-14 5-6 12-19 6-39z m-295-265c0 0 26-59 29-66 0 0 0 0 0 0 3 0 30 44 30 44 8 13 3 16-13 25l-2 1-1 0c-4 2-8 4-11 6l-21 11c-3 1-5 1-7 1-8 0-9-10-4-22z m260 289c-3 0-6-1-10-3l-340-177c-14-7-13-18 1-23l44-17c5-2 11-3 17-3 11 0 24 3 32 10l188 147c6 4 9 7 10 7 1 0-1-4-7-10l-149-158c-9-10-8-21 1-28l9-5 3 0c14-6 38-16 53-21l48-20c14-6 26-11 26-11 0 0 0 0 1 0 0 0 3 12 7 27l73 268c3 11 0 17-7 17z"/>
<glyph unicode="&#57348;" d="M360 53c-4-3-9-5-15-5-5 0-10 2-14 5-9 5-13 14-13 23 0 1 0 3 0 4l0-1 0 1c0 0 0 0 0 1-1-1-3-1-4-2 0 0-14-24-14-24-4-6-10-10-17-12 0-2-1-6-1-6-4-11-14-18-26-19 0 0 0 0-1 0-10 0-20 7-25 17-9 1-18 7-21 17 0 0-9 22-12 28-1 0-2 1-3 1 0-1 0-1 0-1l0-1 0 1c0-1 0-3 0-4 0-9-4-18-13-23-4-3-9-5-14-5-6 0-11 2-15 5-3 2-69 48-69 146 0 28 13 54 36 70 11 8 23 13 29 15 1 11 3 21 5 32 1 2 1 4 2 6 0 3 1 5 1 7 16 56 46 91 66 108 0 13 0 29 0 29 0 15 12 28 27 28l12 0c15 0 28-13 28-28 0 0 0-15 0-28 20-17 51-52 67-109 0-2 0-4 0-7 1-2 2-4 3-6 2-11 4-21 5-32 6-2 17-7 28-15 24-16 37-42 37-70 0-98-66-144-69-146z m-126 9l9 17 13-33 10 33 10-10 15 24-70 0z m-123 137c0-85 56-124 56-124 0 0-4 25 21 54-24 68-28 130-28 130 0 0-49-11-49-60z m150 226l0 41-12 0 0-42c-15-11-50-42-66-102l146 0c-17 61-54 93-68 103z m71-122l-152 0c-4-17-6-27-6-47 0-44 34-143 34-143l96 0c0 0 34 100 34 143 0 20-3 30-6 47z m20-44c0 0-4-62-28-130 25-29 21-54 21-54 0 0 56 39 56 124 0 49-49 60-49 60z m-96-35c-17 0-31 14-31 31 0 17 14 27 31 27 17 0 31-10 31-27 0-17-14-31-31-31z m-1 45c-8 0-14-6-14-14 0-8 6-15 14-15 8 0 15 7 15 15 0 8-7 14-15 14z"/>
<glyph unicode="&#57349;" d="M454 73l-396 0c-25 0-45 21-45 46l0 274c0 25 20 46 45 46l396 0c25 0 45-21 45-46l0-274c0-25-20-46-45-46z m15 320c0 8-7 15-15 15l-396 0c-8 0-15-7-15-15l0-274c0-8 7-15 15-15l23 0 25 39c3 4 8 7 13 7l274 0c5 0 10-3 13-7l25-39 23 0c8 0 15 7 15 15z m-122-183l-182 0c-34 0-61 28-61 61 0 34 27 61 61 61l182 0c34 0 61-27 61-61 0-33-27-61-61-61z m-182 92c-17 0-31-14-31-31 0-17 14-30 31-30 17 0 30 13 30 30 0 17-13 31-30 31z m130 0l-78 0c5-9 9-20 9-31 0-11-4-21-9-30l78 0c-5 9-9 19-9 30 0 11 4 22 9 31z m52 0c-17 0-30-14-30-31 0-17 13-30 30-30 17 0 31 13 31 30 0 17-14 31-31 31z"/>
<glyph unicode="&#57350;" d="M478 203c-2-16-6-34-12-51-22-63-28-70-39-73-7-2-15-3-24-3-22 0-50-3-54-3 0 0-23-1-24 0-18 3-14 15-37 18-2-1-11-1-13-1-4 0-7 1-11 1-3 0-11-2-17-4 0 0-1 0-1 0-18-5-37-6-51-6-14 0-63 1-87 21-46 36-62 114-59 158 2 24 10 40 24 49 8 5 18 7 29 7 8 0 15-1 18-2l1 0c4-1 15-3 21-3 1 0 1 0 2 0 3 0 6 0 8 1-14 14-23 27-24 29-16 25-13 46-8 60 7 18 23 31 34 35 3 1 6 3 11 3 0 0 1 0 1 0 22 0 32-19 37-27 2-4 4-10 8-13 10-11 16-15 20-17 2-1 3-2 5-3 8-6 29-23 55-54 9-10 18-27 23-38 4-2 9-4 17-7l1-1c4-2 8-4 12-7l17 9c7 3 21 7 31 8 5 1 20 2 27 1 40-7 61-32 60-67 0-6-1-13-1-20z m-158 50c-3 2-25 11-27 13 0 0-14 29-24 42-25 29-45 45-50 49-4 2-12 6-29 24-14 14-15 30-24 30-1 0-1 0-1 0-1 0-1-2-3-2-5-2-29-22-9-54 0 0 10-15 27-30 0 0 23-20-3-35 0 0-14-8-33-8-1 0-2 0-4 1-8 0-21 2-25 3-2 0-7 2-13 2-5 0-10-1-14-4-21-12-9-122 38-160 11-10 41-15 69-15 16 0 31 2 43 5 0 0 16 5 26 5 1 0 2 0 2 0 4 0 7 0 9 0 8 0 13 1 13 1 0 0 9 2 14 11 4 8 30 57 29 102 0 0 1 15-11 20z m91 12c-16 3-46-10-49-10 0 0 0 0 0 0-3 0-3-7-1-8 3-1 2-22 2-32-1-12-13-84-41-104l24-15c0 0 29 7 47 7 6 0 21 2 26 4 0-1 0 0 0 0 0 0 0 0 0 0 0 1 3 8 16 49 6 15 10 28 12 42 0 6 2 20 2 25 1 25-18 39-38 42z m-5-65c-10 0-19 8-19 19 0 10 9 19 19 19 11 0 20-9 20-19 0-11-9-19-20-19z"/>
<glyph unicode="&#92;" d="M142 482c14 15 38 15 52 0l190-193c5-5 9-12 10-19 1-3 1-6 1-9 0-11-4-21-12-29l-198-201c-8-8-18-12-29-12-10 0-20 4-28 12-15 15-15 42 0 57l158 160c9 10 9 25 0 34l-144 147c-14 14-14 39 0 53"/>
<glyph unicode="&#57351;" d="M142 482c14 15 38 15 52 0l190-193c5-5 9-12 10-19 1-3 1-6 1-9 0-11-4-21-12-29l-198-201c-8-8-18-12-29-12-10 0-20 4-28 12-15 15-15 42 0 57l158 160c9 10 9 25 0 34l-144 147c-14 14-14 39 0 53"/>
</font>
</defs>
</svg>
